Zombieland - Double Tap (2019) (1080p BDRip x265 10bit DTS-HD MA 5.1 - TheSickle)[TAoE].mkv


    Seeders : 35      Leechers : 14

Movie : Zombieland: Double Tap
Downloads : 248
Language : English
tag : HEVC,MKV,
Genres : Horror,Action,Comedy,
Release date : 2019
Summary : The group will face a new zombie threat as a new breed of zombie has developed. This new super-zombie type is faster, bigger, and stronger than the previous strain of zombies and harder to kill. These super-zombies have started grouping up into a horde going from city to city leaving a path of destruction behind them.




Description



Hello everyone,
We are TAoE, a small team of passionate encoders who love encoding. We try our best to provide you with high quality releases.

Requests for movies and shows are welcome.
We have a form for encode requests which can be found here
Encode requests form
submit your request and it will be added to our encoding request list
You can view our encoding request list here
Encode requests list


When or if we encode it will depend on if we can obtain a good source to encode with and
if one of the TAoE encoders chooses to encode it. Unfortunately we are not able to encode everything,
new members are welcome as that helps us encode more content!

If you would like to join TAoE submit your request here!
TAoE member applications form





Zombieland (2009) IMDB









Media Information



General
Unique ID : 177384626049985497075554085558298918967 (0x8573094AD96CC0DC7DEABF81CD80C037)
Complete name : Zombieland - Double Tap (2019) (1080p BDRip x265 10bit DTS-HD MA 5.1 - TheSickle)[TAoE].mkv
Format : Matroska
Format version : Version 4
File size : 7.74 GiB
Duration : 1 h 39 min
Overall bit rate mode : Variable
Overall bit rate : 11.2 Mb/s
Movie name : Zombieland - Double Tap (2019) (1080p BDRip x265 10bit DTS-HD MA 5.1 - TheSickle)[TAoE].mkv
Writing application : Lavf58.29.100
Writing library : Lavf58.29.100
ErrorDetectionType : Per level 1
IMDB : tt1560220
TMDB : movie/338967

Video
ID : 1
Format : HEVC
Format/Info : High Efficiency Video Coding
Format profile : Main [email protected]@Main
Codec ID : V_MPEGH/ISO/HEVC
Duration : 1 h 39 min
Bit rate : 7 915 kb/s
Width : 1 920 pixels
Height : 1 080 pixels
Display aspect ratio : 16:9
Frame rate mode : Constant
Frame rate : 23.976 (24000/1001) FPS
Color space : YUV
Chroma subsampling : 4:2:0
Bit depth : 10 bits
Bits/(Pixel*Frame) : 0.159
Stream size : 5.48 GiB (71%)
Title : Encoded by TheSickle for TAoE using Hiru V1.2
Writing library : x265 3.2+35-acc5d16999e2:[Windows][GCC 9.2.1][64 bit] 10bit
Encoding settings : cpuid=1111039 / frame-threads=4 / numa-pools=24 / wpp / no-pmode / no-pme / no-psnr / no-ssim / log-level=2 / input-csp=1 / input-res=1920x1080 / interlace=0 / total-frames=0 / level-idc=0 / high-tier=1 / uhd-bd=0 / ref=4 / no-allow-non-conformance / no-repeat-headers / annexb / no-aud / no-hrd / info / hash=0 / no-temporal-layers / open-gop / min-keyint=23 / keyint=250 / gop-lookahead=0 / bframes=8 / b-adapt=2 / b-pyramid / bframe-bias=0 / rc-lookahead=80 / lookahead-slices=4 / scenecut=40 / hist-scenecut=0 / radl=0 / no-splice / no-intra-refresh / ctu=64 / min-cu-size=8 / no-rect / no-amp / max-tu-size=32 / tu-inter-depth=1 / tu-intra-depth=1 / limit-tu=0 / rdoq-level=2 / dynamic-rd=0.00 / no-ssim-rd / signhide / no-tskip / nr-intra=0 / nr-inter=0 / no-constrained-intra / no-strong-intra-smoothing / max-merge=3 / limit-refs=3 / limit-modes / me=3 / subme=5 / merange=57 / temporal-mvp / no-frame-dup / no-hme / weightp / no-weightb / no-analyze-src-pics / deblock=0:0 / sao / no-sao-non-deblock / rd=4 / selective-sao=4 / no-early-skip / rskip / no-fast-intra / no-tskip-fast / no-cu-lossless / no-b-intra / no-splitrd-skip / rdpenalty=0 / psy-rd=1.30 / psy-rdoq=2.00 / no-rd-refine / no-lossless / cbqpoffs=0 / crqpoffs=0 / rc=crf / crf=17.0 / qcomp=0.60 / qpstep=4 / stats-write=0 / stats-read=0 / ipratio=1.40 / pbratio=1.30 / aq-mode=4 / aq-strength=1.10 / cutree / zone-count=0 / no-strict-cbr / qg-size=32 / no-rc-grain / qpmax=69 / qpmin=0 / no-const-vbv / sar=1 / overscan=0 / videoformat=5 / range=0 / colorprim=2 / transfer=2 / colormatrix=2 / chromaloc=0 / display-window=0 / cll=0,0 / min-luma=0 / max-luma=1023 / log2-max-poc-lsb=8 / vui-timing-info / vui-hrd-info / slices=1 / no-opt-qp-pps / no-opt-ref-list-length-pps / no-multi-pass-opt-rps / scenecut-bias=0.05 / hist-threshold=0.01 / no-opt-cu-delta-qp / no-aq-motion / no-hdr10 / no-hdr10-opt / no-dhdr10-opt / no-idr-recovery-sei / analysis-reuse-level=0 / analysis-save-reuse-level=0 / analysis-load-reuse-level=0 / scale-factor=0 / refine-intra=0 / refine-inter=0 / refine-mv=1 / refine-ctu-distortion=0 / no-limit-sao / ctu-info=0 / no-lowpass-dct / refine-analysis-type=0 / copy-pic=1 / max-ausize-factor=1.0 / no-dynamic-refine / no-single-sei / no-hevc-aq / no-svt / no-field / qp-adaptation-range=1.00 / no-scenecut-aware-qpconformance-window-offsets / right=0 / bottom=0
Default : Yes
Forced : No
Color range : Limited

Audio #1
ID : 2
Format : DTS XLL
Format/Info : Digital Theater Systems
Commercial name : DTS-HD Master Audio
Codec ID : A_DTS
Duration : 1 h 39 min
Bit rate mode : Variable
Bit rate : 2 252 kb/s
Channel(s) : 6 channels
Channel layout : C L R Ls Rs LFE
Sampling rate : 48.0 kHz
Frame rate : 93.750 FPS (512 SPF)
Bit depth : 16 bits
Compression mode : Lossless
Stream size : 1.56 GiB (20%)
Language : English
Default : Yes
Forced : No

Audio #2
ID : 3
Format : AC-3
Format/Info : Audio Coding 3
Commercial name : Dolby Digital
Codec ID : A_AC3
Duration : 1 h 39 min
Bit rate mode : Constant
Bit rate : 192 kb/s
Channel(s) : 2 channels
Channel layout : L R
Sampling rate : 48.0 kHz
Frame rate : 31.250 FPS (1536 SPF)
Bit depth : 32 bits
Compression mode : Lossy
Stream size : 136 MiB (2%)
Title : Commentary by Director Ruben Fleischer
Language : English
Service kind : Complete Main
Default : No
Forced : No

Text #1
ID : 4
Format : PGS
Codec ID : S_HDMV/PGS
Codec ID/Info : Picture based subtitle format used on BDs/HD-DVDs
Duration : 28 min 6 s
Bit rate : 487 b/s
Count of elements : 14
Stream size : 100 KiB (0%)
Title : English (Forced)
Language : English
Default : No
Forced : Yes

Text #2
ID : 5
Format : PGS
Codec ID : S_HDMV/PGS
Codec ID/Info : Picture based subtitle format used on BDs/HD-DVDs
Duration : 1 h 38 min
Bit rate : 51.9 kb/s
Count of elements : 3212
Stream size : 36.5 MiB (0%)
Title : English (SDH)
Language : English
Default : No
Forced : No

Text #3
ID : 6
Format : PGS
Codec ID : S_HDMV/PGS
Codec ID/Info : Picture based subtitle format used on BDs/HD-DVDs
Duration : 1 h 38 min
Bit rate : 24.5 kb/s
Count of elements : 3459
Stream size : 17.2 MiB (0%)
Title : Arabic
Language : Arabic
Default : No
Forced : No

Text #4
ID : 7
Format : PGS
Codec ID : S_HDMV/PGS
Codec ID/Info : Picture based subtitle format used on BDs/HD-DVDs
Duration : 1 h 38 min
Bit rate : 39.4 kb/s
Count of elements : 2940
Stream size : 27.7 MiB (0%)
Title : Bulgarian
Language : Bulgarian
Default : No
Forced : No

Text #5
ID : 8
Format : PGS
Codec ID : S_HDMV/PGS
Codec ID/Info : Picture based subtitle format used on BDs/HD-DVDs
Duration : 1 h 38 min
Bit rate : 37.8 kb/s
Count of elements : 3429
Stream size : 26.6 MiB (0%)
Title : Croatian
Language : Croatian
Default : No
Forced : No

Text #6
ID : 9
Format : PGS
Codec ID : S_HDMV/PGS
Codec ID/Info : Picture based subtitle format used on BDs/HD-DVDs
Duration : 1 h 38 min
Bit rate : 42.5 kb/s
Count of elements : 3369
Stream size : 29.9 MiB (0%)
Title : Czech
Language : Czech
Default : No
Forced : No

Text #7
ID : 10
Format : PGS
Codec ID : S_HDMV/PGS
Codec ID/Info : Picture based subtitle format used on BDs/HD-DVDs
Duration : 1 h 38 min
Bit rate : 46.2 kb/s
Count of elements : 2932
Stream size : 32.5 MiB (0%)
Title : Greek
Language : Greek
Default : No
Forced : No

Text #8
ID : 11
Format : PGS
Codec ID : S_HDMV/PGS
Codec ID/Info : Picture based subtitle format used on BDs/HD-DVDs
Duration : 1 h 38 min
Bit rate : 34.7 kb/s
Count of elements : 3451
Stream size : 24.4 MiB (0%)
Title : Hebrew
Language : Hebrew
Default : No
Forced : No

Text #9
ID : 12
Format : PGS
Codec ID : S_HDMV/PGS
Codec ID/Info : Picture based subtitle format used on BDs/HD-DVDs
Duration : 1 h 38 min
Bit rate : 40.7 kb/s
Count of elements : 2918
Stream size : 28.6 MiB (0%)
Title : Hungarian
Language : Hungarian
Default : No
Forced : No

Text #10
ID : 13
Format : PGS
Codec ID : S_HDMV/PGS
Codec ID/Info : Picture based subtitle format used on BDs/HD-DVDs
Duration : 1 h 38 min
Bit rate : 41.5 kb/s
Count of elements : 3154
Stream size : 29.2 MiB (0%)
Title : Icelandic
Language : Icelandic
Default : No
Forced : No

Text #11
ID : 14
Format : PGS
Codec ID : S_HDMV/PGS
Codec ID/Info : Picture based subtitle format used on BDs/HD-DVDs
Duration : 1 h 38 min
Bit rate : 39.1 kb/s
Count of elements : 3207
Stream size : 27.5 MiB (0%)
Title : Italian
Language : Italian
Default : No
Forced : No

Text #12
ID : 15
Format : PGS
Codec ID : S_HDMV/PGS
Codec ID/Info : Picture based subtitle format used on BDs/HD-DVDs
Duration : 1 h 38 min
Bit rate : 37.3 kb/s
Count of elements : 3309
Stream size : 26.2 MiB (0%)
Title : Polish
Language : Polish
Default : No
Forced : No

Text #13
ID : 16
Format : PGS
Codec ID : S_HDMV/PGS
Codec ID/Info : Picture based subtitle format used on BDs/HD-DVDs
Duration : 1 h 38 min
Bit rate : 45.7 kb/s
Count of elements : 3218
Stream size : 32.1 MiB (0%)
Title : Portuguese
Language : Portuguese
Default : No
Forced : No

Text #14
ID : 17
Format : PGS
Codec ID : S_HDMV/PGS
Codec ID/Info : Picture based subtitle format used on BDs/HD-DVDs
Duration : 1 h 38 min
Bit rate : 42.9 kb/s
Count of elements : 3129
Stream size : 30.2 MiB (0%)
Title : Romanian
Language : Romanian
Default : No
Forced : No

Text #15
ID : 18
Format : PGS
Codec ID : S_HDMV/PGS
Codec ID/Info : Picture based subtitle format used on BDs/HD-DVDs
Duration : 1 h 38 min
Bit rate : 42.7 kb/s
Count of elements : 3467
Stream size : 30.0 MiB (0%)
Title : Serbian
Language : Serbian
Default : No
Forced : No

Text #16
ID : 19
Format : PGS
Codec ID : S_HDMV/PGS
Codec ID/Info : Picture based subtitle format used on BDs/HD-DVDs
Duration : 1 h 38 min
Bit rate : 33.7 kb/s
Count of elements : 3464
Stream size : 23.7 MiB (0%)
Title : Slovak
Language : Slovak
Default : No
Forced : No

Text #17
ID : 20
Format : PGS
Codec ID : S_HDMV/PGS
Codec ID/Info : Picture based subtitle format used on BDs/HD-DVDs
Duration : 1 h 38 min
Bit rate : 35.9 kb/s
Count of elements : 2682
Stream size : 25.2 MiB (0%)
Title : Slovenian
Language : Slovenian
Default : No
Forced : No

Text #18
ID : 21
Format : PGS
Codec ID : S_HDMV/PGS
Codec ID/Info : Picture based subtitle format used on BDs/HD-DVDs
Duration : 1 h 38 min
Bit rate : 47.7 kb/s
Count of elements : 3465
Stream size : 33.5 MiB (0%)
Title : Turkish
Language : Turkish
Default : No
Forced : No

Text #19
ID : 22
Format : PGS
Codec ID : S_HDMV/PGS
Codec ID/Info : Picture based subtitle format used on BDs/HD-DVDs
Duration : 1 h 38 min
Bit rate : 73.4 kb/s
Count of elements : 3585
Stream size : 51.8 MiB (1%)
Title : English (Commentary)
Language : English
Default : No
Forced : No

Text #20
ID : 23
Format : PGS
Codec ID : S_HDMV/PGS
Codec ID/Info : Picture based subtitle format used on BDs/HD-DVDs
Duration : 1 h 38 min
Bit rate : 71.6 kb/s
Count of elements : 3587
Stream size : 50.5 MiB (1%)
Title : Italian (Commentary)
Language : Italian
Default : No
Forced : No

Menu
00:00:00.000 : :Chapter 1
00:05:00.675 : :Chapter 2
00:11:08.001 : :Chapter 3
00:15:24.507 : :Chapter 4
00:21:16.192 : :Chapter 5
00:29:15.545 : :Chapter 6
00:36:55.422 : :Chapter 7
00:44:03.015 : :Chapter 8
00:50:12.968 : :Chapter 9
00:57:52.511 : :Chapter 10
01:03:51.870 : :Chapter 11
01:06:50.048 : :Chapter 12
01:10:12.125 : :Chapter 13
01:15:40.119 : :Chapter 14
01:23:45.312 : :Chapter 15
01:29:48.216 : :Chapter 16

Source



General
Unique ID : 309907024476902572234596425870473147870 (0xE925EBFDCFAA692622ED8BB8654FB5DE)
Complete name : Zombieland.Double.Tap.2019.BluRay.1080p.DTS-HD.MA.5.1.AVC.REMUX-FraMeSToR.mkv
Format : Matroska
Format version : Version 4
File size : 22.9 GiB
Duration : 1 h 39 min
Overall bit rate mode : Variable
Overall bit rate : 33.1 Mb/s
Encoded date : UTC 2019-12-27 17:49:26
Writing application : mkvmerge v37.0.0 ('Leave It') 64-bit
Writing library : libebml v1.3.9 + libmatroska v1.5.2
IMDB : tt1560220
TMDB : movie/338967

Video
ID : 1
Format : AVC
Format/Info : Advanced Video Codec
Format profile : [email protected]
Format settings : CABAC / 2 Ref Frames
Format settings, CABAC : Yes
Format settings, Reference frames : 2 frames
Format settings, GOP : M=1, N=10
Codec ID : V_MPEG4/ISO/AVC
Duration : 1 h 39 min
Bit rate mode : Variable
Bit rate : 29.8 Mb/s
Width : 1 920 pixels
Height : 1 080 pixels
Display aspect ratio : 16:9
Frame rate mode : Constant
Frame rate : 23.976 (24000/1001) FPS
Color space : YUV
Chroma subsampling : 4:2:0
Bit depth : 8 bits
Scan type : Progressive
Bits/(Pixel*Frame) : 0.600
Stream size : 20.6 GiB (90%)
Default : Yes
Forced : No

Audio #1
ID : 2
Format : DTS XLL
Format/Info : Digital Theater Systems
Commercial name : DTS-HD Master Audio
Codec ID : A_DTS
Duration : 1 h 39 min
Bit rate mode : Variable
Bit rate : 2 252 kb/s
Channel(s) : 6 channels
Channel layout : C L R Ls Rs LFE
Sampling rate : 48.0 kHz
Frame rate : 93.750 FPS (512 SPF)
Bit depth : 16 bits
Compression mode : Lossless
Stream size : 1.56 GiB (7%)
Language : English
Default : Yes
Forced : No

Audio #2
ID : 3
Format : AC-3
Format/Info : Audio Coding 3
Commercial name : Dolby Digital
Codec ID : A_AC3
Duration : 1 h 39 min
Bit rate mode : Constant
Bit rate : 192 kb/s
Channel(s) : 2 channels
Channel layout : L R
Sampling rate : 48.0 kHz
Frame rate : 31.250 FPS (1536 SPF)
Compression mode : Lossy
Stream size : 136 MiB (1%)
Title : Commentary by Director Ruben Fleischer
Language : English
Service kind : Complete Main
Default : No
Forced : No

Text #1
ID : 4
Format : PGS
Codec ID : S_HDMV/PGS
Codec ID/Info : Picture based subtitle format used on BDs/HD-DVDs
Duration : 28 min 6 s
Bit rate : 487 b/s
Count of elements : 14
Stream size : 100 KiB (0%)
Title : English (Forced)
Language : English
Default : Yes
Forced : Yes

Text #2
ID : 5
Format : PGS
Codec ID : S_HDMV/PGS
Codec ID/Info : Picture based subtitle format used on BDs/HD-DVDs
Duration : 1 h 38 min
Bit rate : 51.9 kb/s
Count of elements : 3212
Stream size : 36.5 MiB (0%)
Title : English (SDH)
Language : English
Default : No
Forced : No

Text #3
ID : 6
Format : PGS
Codec ID : S_HDMV/PGS
Codec ID/Info : Picture based subtitle format used on BDs/HD-DVDs
Duration : 1 h 38 min
Bit rate : 24.5 kb/s
Count of elements : 3459
Stream size : 17.2 MiB (0%)
Title : Arabic
Language : Arabic
Default : No
Forced : No

Text #4
ID : 7
Format : PGS
Codec ID : S_HDMV/PGS
Codec ID/Info : Picture based subtitle format used on BDs/HD-DVDs
Duration : 1 h 38 min
Bit rate : 39.4 kb/s
Count of elements : 2940
Stream size : 27.7 MiB (0%)
Title : Bulgarian
Language : Bulgarian
Default : No
Forced : No

Text #5
ID : 8
Format : PGS
Codec ID : S_HDMV/PGS
Codec ID/Info : Picture based subtitle format used on BDs/HD-DVDs
Duration : 1 h 38 min
Bit rate : 37.8 kb/s
Count of elements : 3429
Stream size : 26.6 MiB (0%)
Title : Croatian
Language : Croatian
Default : No
Forced : No

Text #6
ID : 9
Format : PGS
Codec ID : S_HDMV/PGS
Codec ID/Info : Picture based subtitle format used on BDs/HD-DVDs
Duration : 1 h 38 min
Bit rate : 42.5 kb/s
Count of elements : 3369
Stream size : 29.9 MiB (0%)
Title : Czech
Language : Czech
Default : No
Forced : No

Text #7
ID : 10
Format : PGS
Codec ID : S_HDMV/PGS
Codec ID/Info : Picture based subtitle format used on BDs/HD-DVDs
Duration : 1 h 38 min
Bit rate : 46.2 kb/s
Count of elements : 2932
Stream size : 32.5 MiB (0%)
Title : Greek
Language : Greek
Default : No
Forced : No

Text #8
ID : 11
Format : PGS
Codec ID : S_HDMV/PGS
Codec ID/Info : Picture based subtitle format used on BDs/HD-DVDs
Duration : 1 h 38 min
Bit rate : 34.7 kb/s
Count of elements : 3451
Stream size : 24.4 MiB (0%)
Title : Hebrew
Language : Hebrew
Default : No
Forced : No

Text #9
ID : 12
Format : PGS
Codec ID : S_HDMV/PGS
Codec ID/Info : Picture based subtitle format used on BDs/HD-DVDs
Duration : 1 h 38 min
Bit rate : 40.7 kb/s
Count of elements : 2918
Stream size : 28.6 MiB (0%)
Title : Hungarian
Language : Hungarian
Default : No
Forced : No

Text #10
ID : 13
Format : PGS
Codec ID : S_HDMV/PGS
Codec ID/Info : Picture based subtitle format used on BDs/HD-DVDs
Duration : 1 h 38 min
Bit rate : 41.5 kb/s
Count of elements : 3154
Stream size : 29.2 MiB (0%)
Title : Icelandic
Language : Icelandic
Default : No
Forced : No

Text #11
ID : 14
Format : PGS
Codec ID : S_HDMV/PGS
Codec ID/Info : Picture based subtitle format used on BDs/HD-DVDs
Duration : 1 h 38 min
Bit rate : 39.1 kb/s
Count of elements : 3207
Stream size : 27.5 MiB (0%)
Title : Italian
Language : Italian
Default : No
Forced : No

Text #12
ID : 15
Format : PGS
Codec ID : S_HDMV/PGS
Codec ID/Info : Picture based subtitle format used on BDs/HD-DVDs
Duration : 1 h 38 min
Bit rate : 37.3 kb/s
Count of elements : 3309
Stream size : 26.2 MiB (0%)
Title : Polish
Language : Polish
Default : No
Forced : No

Text #13
ID : 16
Format : PGS
Codec ID : S_HDMV/PGS
Codec ID/Info : Picture based subtitle format used on BDs/HD-DVDs
Duration : 1 h 38 min
Bit rate : 45.7 kb/s
Count of elements : 3218
Stream size : 32.1 MiB (0%)
Title : Portuguese
Language : Portuguese
Default : No
Forced : No

Text #14
ID : 17
Format : PGS
Codec ID : S_HDMV/PGS
Codec ID/Info : Picture based subtitle format used on BDs/HD-DVDs
Duration : 1 h 38 min
Bit rate : 42.9 kb/s
Count of elements : 3129
Stream size : 30.2 MiB (0%)
Title : Romanian
Language : Romanian
Default : No
Forced : No

Text #15
ID : 18
Format : PGS
Codec ID : S_HDMV/PGS
Codec ID/Info : Picture based subtitle format used on BDs/HD-DVDs
Duration : 1 h 38 min
Bit rate : 42.7 kb/s
Count of elements : 3467
Stream size : 30.0 MiB (0%)
Title : Serbian
Language : Serbian
Default : No
Forced : No

Text #16
ID : 19
Format : PGS
Codec ID : S_HDMV/PGS
Codec ID/Info : Picture based subtitle format used on BDs/HD-DVDs
Duration : 1 h 38 min
Bit rate : 33.7 kb/s
Count of elements : 3464
Stream size : 23.7 MiB (0%)
Title : Slovak
Language : Slovak
Default : No
Forced : No

Text #17
ID : 20
Format : PGS
Codec ID : S_HDMV/PGS
Codec ID/Info : Picture based subtitle format used on BDs/HD-DVDs
Duration : 1 h 38 min
Bit rate : 35.9 kb/s
Count of elements : 2682
Stream size : 25.2 MiB (0%)
Title : Slovenian
Language : Slovenian
Default : No
Forced : No

Text #18
ID : 21
Format : PGS
Codec ID : S_HDMV/PGS
Codec ID/Info : Picture based subtitle format used on BDs/HD-DVDs
Duration : 1 h 38 min
Bit rate : 47.7 kb/s
Count of elements : 3465
Stream size : 33.5 MiB (0%)
Title : Turkish
Language : Turkish
Default : No
Forced : No

Text #19
ID : 22
Format : PGS
Codec ID : S_HDMV/PGS
Codec ID/Info : Picture based subtitle format used on BDs/HD-DVDs
Duration : 1 h 38 min
Bit rate : 73.4 kb/s
Count of elements : 3585
Stream size : 51.8 MiB (0%)
Title : English (Commentary)
Language : English
Default : No
Forced : No

Text #20
ID : 23
Format : PGS
Codec ID : S_HDMV/PGS
Codec ID/Info : Picture based subtitle format used on BDs/HD-DVDs
Duration : 1 h 38 min
Bit rate : 71.6 kb/s
Count of elements : 3587
Stream size : 50.5 MiB (0%)
Title : Italian (Commentary)
Language : Italian
Default : No
Forced : No

Menu
00:00:00.000 : en:Chapter 1
00:05:00.675 : en:Chapter 2
00:11:08.001 : en:Chapter 3
00:15:24.507 : en:Chapter 4
00:21:16.192 : en:Chapter 5
00:29:15.545 : en:Chapter 6
00:36:55.422 : en:Chapter 7
00:44:03.015 : en:Chapter 8
00:50:12.968 : en:Chapter 9
00:57:52.511 : en:Chapter 10
01:03:51.870 : en:Chapter 11
01:06:50.048 : en:Chapter 12
01:10:12.125 : en:Chapter 13
01:15:40.119 : en:Chapter 14
01:23:45.312 : en:Chapter 15
01:29:48.216 : en:Chapter 16


Trackers List

Tracker Name
udp://tracker.coppersurfer.tk:6969/announce
udp://tracker.internetwarriors.net:1337/announce
http://tracker.opentrackr.org:1337/announce
udp://denis.stalker.upeer.me:6969/announce
udp://tracker.internetwarriors.net:1337
udp://9.rarbg.me:2720/announce
udp://explodie.org:6969/announce
udp://tracker.cyberia.is:6969/announce
udp://thetracker.org/announce
udp://open.demonii.si:1337/announce

Torrent File Content

  • Zombieland - Double Tap (2019) (1080p BDRip x265 10bit DTS-HD MA 5.1 - TheSickle)[TAoE].mkv (7.7 GB)

Related torrents

Torrent Name Added Size Seed Leech
7 months ago 1.6 GB 10610 3344
7 months ago 880.9 MB 8978 4720
7 months ago 797 MB 2588 761
9 months ago 946.7 MB 1486 471
7 months ago 5.2 GB 752 421


Latest Searches

LATIN  |  the a list S01  |  Single 2015  |  the x  |  marx brothers  |  erin brok  |  extras  |  technique  |  脸肿体检  |  Tiffany tatum  |  Florane Russell hotlegsandfeet  |  Gold Film  |  dyxless  |  dog porn  |  C  |