Wynonna Earp (2016) Season 1 S01 (1080p BluRay x265 HEVC 10bit AAC 5.1 Vyndros)


    Seeders : 47      Leechers : 15

Downloads : 121
Language : English
tag : action,drama,supernatural,magic,




Description















Media Information

Code:

General
Format : Matroska
Format version : Version 4 / Version 2
File size : 1.17 GiB
Duration : 43 min 8 s
Overall bit rate : 3 876 kb/s
Encoded date : UTC 2020-09-11 07:33:38
Writing application : mkvmerge v20.0.0 ('I Am The Sun') 64-bit
Writing library : libebml v1.3.5 + libmatroska v1.4.8
Writing frontend : StaxRip v1.7.0.6

Video
ID : 1
Format : HEVC
Format/Info : High Efficiency Video Coding
Format profile : Main [email protected]@Main
Codec ID : V_MPEGH/ISO/HEVC
Duration : 43 min 8 s
Bit rate : 3 396 kb/s
Width : 1 920 pixels
Height : 1 080 pixels
Display aspect ratio : 16:9
Frame rate mode : Constant
Frame rate : 23.976 (24000/1001) FPS
Color space : YUV
Chroma subsampling : 4:2:0
Bit depth : 10 bits
Bits/(Pixel*Frame) : 0.068
Stream size : 1.02 GiB (88%)
Writing library : x265 3.4+1-7b120308dc64:[Windows][MSVC 1926][64 bit] 10bit
Encoding settings : cpuid=1111039 / frame-threads=2 / numa-pools=4 / wpp / no-pmode / no-pme / no-psnr / ssim / log-level=2 / input-csp=1 / input-res=1920x1080 / interlace=0 / total-frames=62051 / level-idc=0 / high-tier=1 / uhd-bd=0 / ref=3 / no-allow-non-conformance / no-repeat-headers / annexb / no-aud / no-hrd / info / hash=0 / no-temporal-layers / open-gop / min-keyint=23 / keyint=250 / gop-lookahead=0 / bframes=8 / b-adapt=2 / b-pyramid / bframe-bias=0 / rc-lookahead=80 / lookahead-slices=6 / scenecut=40 / hist-scenecut=0 / radl=0 / no-splice / no-intra-refresh / ctu=64 / min-cu-size=8 / no-rect / no-amp / max-tu-size=32 / tu-inter-depth=1 / tu-intra-depth=1 / limit-tu=0 / rdoq-level=0 / dynamic-rd=0.00 / no-ssim-rd / signhide / no-tskip / nr-intra=0 / nr-inter=0 / no-constrained-intra / no-strong-intra-smoothing / max-merge=5 / limit-refs=1 / no-limit-modes / me=3 / subme=5 / merange=57 / temporal-mvp / no-frame-dup / no-hme / weightp / no-weightb / no-analyze-src-pics / deblock=0:0 / sao / no-sao-non-deblock / rd=3 / selective-sao=4 / early-skip / no-rskip / no-fast-intra / no-tskip-fast / no-cu-lossless / b-intra / no-splitrd-skip / rdpenalty=0 / psy-rd=2.00 / psy-rdoq=0.00 / no-rd-refine / no-lossless / cbqpoffs=0 / crqpoffs=0 / rc=crf / crf=20.0 / qcomp=0.60 / qpstep=4 / stats-write=0 / stats-read=0 / ipratio=1.40 / pbratio=1.30 / aq-mode=3 / aq-strength=1.00 / cutree / zone-count=0 / no-strict-cbr / qg-size=32 / no-rc-grain / qpmax=69 / qpmin=0 / no-const-vbv / sar=0 / overscan=0 / videoformat=5 / range=0 / colorprim=2 / transfer=2 / colormatrix=2 / chromaloc=0 / display-window=0 / cll=0,0 / min-luma=0 / max-luma=1023 / log2-max-poc-lsb=8 / vui-timing-info / vui-hrd-info / slices=1 / no-opt-qp-pps / no-opt-ref-list-length-pps / no-multi-pass-opt-rps / scenecut-bias=0.05 / hist-threshold=0.01 / no-opt-cu-delta-qp / no-aq-motion / no-hdr10 / no-hdr10-opt / no-dhdr10-opt / no-idr-recovery-sei / analysis-reuse-level=0 / analysis-save-reuse-level=0 / analysis-load-reuse-level=0 / scale-factor=0 / refine-intra=0 / refine-inter=0 / refine-mv=1 / refine-ctu-distortion=0 / no-limit-sao / ctu-info=0 / no-lowpass-dct / refine-analysis-type=0 / copy-pic=1 / max-ausize-factor=1.0 / no-dynamic-refine / no-single-sei / no-hevc-aq / no-svt / no-field / qp-adaptation-range=1.00 / no-scenecut-aware-qpconformance-window-offsets / right=0 / bottom=0 / decoder-max-rate=0
Default : Yes
Forced : No

Audio
ID : 2
Format : AAC
Format/Info : Advanced Audio Codec
Format profile : LC
Codec ID : A_AAC
Duration : 43 min 8 s
Bit rate : 459 kb/s
Channel(s) : 6 channels
Channel positions : Front: L C R, Side: L R, LFE
Sampling rate : 48.0 kHz
Frame rate : 46.875 FPS (1024 spf)
Compression mode : Lossy
Delay relative to video : 20 ms
Stream size : 142 MiB (12%)
Language : English
Default : Yes
Forced : No

Subtitle
ID : 3
Format : PGS
Muxing mode : zlib
Codec ID : S_HDMV/PGS
Codec ID/Info : Picture based subtitle format used on BDs/HD-DVDs
Duration : 42 min 26 s
Bit rate : 65.2 kb/s
Count of elements : 1544
Stream size : 19.8 MiB (2%)
Language : English
Default : No
Forced : No



Source Information

Code:

Release:
BluRay Remux


Trackers List

Tracker Name
udp://tracker.coppersurfer.tk:6969/announce
udp://tracker.leechers-paradise.org:6969/announce
udp://9.rarbg.to:2710/announce
udp://exodus.desync.com:6969/announce
udp://tracker.uw0.xyz:6969/announce
udp://open.stealth.si:80/announce
udp://tracker.tiny-vps.com:6969/announce
udp://open.demonii.si:1337/announc4
udp://zephir.monocul.us:6969/announce
udp://tracker.torrent.eu.org:451/announce
udp://tracker.uw0.xyz:6969/announce
udp://tracker.cyberia.is:6969/announce
http://tracker.files.fm:6969/announce
udp://tracker.zum.bi:6969/announce
udp://opentracker.i2p.rocks:6969/announce

Torrent File Content

Wynonna Earp (2016) Season 1 S01 (1080p BluRay x265 HEVC 10bit AAC 5.1 Vyndros)
  • Wynonna.Earp.S01E01.Purgatory.1080p.10bit.BluRay.AAC5.1.HEVC-Vyndros.mkv (1.3 GB)
  • Wynonna.Earp.S01E02.Keep.the.Home.Fires.Burning.1080p.10bit.BluRay.AAC5.1.HEVC-Vyndros.mkv (1.2 GB)
  • Wynonna.Earp.S01E03.Leavin'.on.Your.Mind.1080p.10bit.BluRay.AAC5.1.HEVC-Vyndros.mkv (1.3 GB)
  • Wynonna.Earp.S01E04.The.Blade.1080p.10bit.BluRay.AAC5.1.HEVC-Vyndros.mkv (1.1 GB)
  • Wynonna.Earp.S01E05.Diggin’.Up.Bones.1080p.10bit.BluRay.AAC5.1.HEVC-Vyndros.mkv (1.1 GB)
  • Wynonna.Earp.S01E06.Constant.Cravings.1080p.10bit.BluRay.AAC5.1.HEVC-Vyndros.mkv (1.2 GB)
  • Wynonna.Earp.S01E07.Walking.After.Midnight.1080p.10bit.BluRay.AAC5.1.HEVC-Vyndros.mkv (972.4 MB)
  • Wynonna.Earp.S01E08.Two-Faced.Jack.1080p.10bit.BluRay.AAC5.1.HEVC-Vyndros.mkv (827.5 MB)
  • Wynonna.Earp.S01E09.Bury.Me.With.My.Guns.On.1080p.10bit.BluRay.AAC5.1.HEVC-Vyndros.mkv (1.1 GB)
  • Wynonna.Earp.S01E10.She.Wouldn't.Be.Gone.1080p.10bit.BluRay.AAC5.1.HEVC-Vyndros.mkv (1.0 GB)
  • Wynonna.Earp.S01E11.Landslide.1080p.10bit.BluRay.AAC5.1.HEVC-Vyndros.mkv (1,010.9 MB)
  • Wynonna.Earp.S01E12.House.of.Memories.1080p.10bit.BluRay.AAC5.1.HEVC-Vyndros.mkv (1.0 GB)
  • Wynonna.Earp.S01E13.I.Walk.the.Line.1080p.10bit.BluRay.AAC5.1.HEVC-Vyndros.mkv (1.2 GB)


Latest Searches