Wasp.Network.2020.720p.NF.WEBRip.X264.DD.5.1.With.Sample.LLG


    Seeders : 52      Leechers : 13

Movie : Wasp Network
Downloads : 1638
Language : English
tag : Wasp Network,2019,
Genres : Thriller,
Release date : 2020
Summary : Havana, early 90’s. René González, a Cuban pilot, steals a plane and flees Cuba, leaving behind his beloved wife and daughter. He starts a new life in Miami. Other Cuban defectors soon follow and start a spy network. Their mission is to infiltrate violent anti-Castroist organizations responsible for terror attacks on the island.




Description

Quote:




******************************Thumbnbil:**********************




******************************Screenshots:********************

screenshot 1

screenshot 2

screenshot 3

screenshot 4

screenshot 5

screenshot 6

screenshot 7

screenshot 8

screenshot 9

screenshot 0


******************************************************

18+.Wasp.Network.2020.720p.NF.WEBRip.X264.DD.5.1.With.Sample.LLG.mp4
Format : MPEG-4
Format profile : Base Media
Codec ID : isom (isom/iso2/avc1/mp41)
File size : 1.42 GiB
Duration : 2 h 8 min
Overall bit rate mode : Variable
Overall bit rate : 1 590 kb/s
Writing application : Lavf57.83.100

Video
ID : 1
Format : AVC
Format/Info : Advanced Video Codec
Format profile : [email protected]
Format settings : CABAC / 1 Ref Frames
Format settings, CABAC : Yes
Format settings, Reference frames : 1 frame
Codec ID : avc1
Codec ID/Info : Advanced Video Coding
Duration : 2 h 8 min
Bit rate mode : Variable
Bit rate : 1 202 kb/s
Maximum bit rate : 3 600 kb/s
Width : 1 280 pixels
Height : 532 pixels
Display aspect ratio : 2.40:1
Original display aspect ratio : 2.40:1
Frame rate mode : Constant
Frame rate : 24.000 FPS
Color space : YUV
Chroma subsampling : 4:2:0
Bit depth : 8 bits
Scan type : Progressive
Bits/(Pixel*Frame) : 0.074
Stream size : 1.07 GiB (76%)
Codec configuration box : avcC

Audio
ID : 2
Format : AC-3
Format/Info : Audio Coding 3
Commercial name : Dolby Digital
Codec ID : ac-3
Duration : 2 h 8 min
Bit rate mode : Constant
Bit rate : 384 kb/s
Channel(s) : 6 channels
Channel layout : L R C LFE Ls Rs
Sampling rate : 48.0 kHz
Frame rate : 31.250 FPS (1536 SPF)
Compression mode : Lossy
Stream size : 352 MiB (24%)
Language : English
Service kind : Complete Main
Default : Yes
Alternate group : 1




********************************************************




Trackers List

Tracker Name
udp://tracker.openbittorrent.com:80/announce
udp://tracker.opentrackr.org:1337/announce

Torrent File Content

18+.Wasp.Network.2020.720p.NF.WEBRip.X264.DD.5.1.With.Sample.LLG
  • Poster.jpg (9.6 KB)
  • Sample 2.ts (19.7 MB)
  • 18+.Wasp.Network.2020.720p.NF.WEBRip.X264.DD.5.1.With.Sample.LLG.mp4 (1.4 GB)

Related torrents

Torrent Name Added Size Seed Leech
3 months ago 797.2 MB 560 380
3 months ago 1.1 GB 483 313
3 months ago 2.4 GB 286 337
3 months ago 4.9 GB 34 13
2 months ago 1.1 GB 32 9


Latest Searches