Various Artists - Rough Guide to Arabic Café (2014) Flac


    Seeders : 20      Leechers : 7

Downloads : 211
Language : English
tag : was95,lossless,music,




Description



Quality-Lossless
Release-2014
Duration-01:53:27
File Size-673 MB
Genre-Disco
Cover Size-1200px

----------------------------------------------------------------------------------------------
Analyzed: Rough Guide to Arabic Café / Artist: Various Artists
----------------------------------------------------------------------------------------------
DR Peak RMS Duration Title [codec]
----------------------------------------------------------------------------------------------
DR12 -0.42 dB -14.49 dB 5:41 01 - Bienvenue/Abiadi [flac]
DR12 -1.32 dB -15.56 dB 6:48 02 - Elleya Misafir [flac]
DR8 -5.91 dB -15.06 dB 4:37 03 - Gamearina [flac]
DR12 -2.40 dB -16.67 dB 5:56 04 - We Daret El Ayam [flac]
DR11 -3.42 dB -15.87 dB 6:56 05 - Samra Oya [flac]
DR8 -5.60 dB -17.67 dB 7:23 06 - Isfahan [flac]
DR13 -0.42 dB -14.72 dB 5:12 07 - Wainek [flac]
DR8 -4.82 dB -15.02 dB 6:26 08 - Tahrir [flac]
DR10 -3.50 dB -15.33 dB 4:11 09 - Abu Simbel [flac]
DR10 -2.40 dB -15.19 dB 4:07 10 - Ya Waadi [flac]
DR11 -2.16 dB -14.37 dB 4:20 11 - La Vignette [flac]
DR9 -4.60 dB -16.22 dB 11:00 12 - Tales of the Sahara [flac]
DR11 -0.00 dB -16.86 dB 3:28 13 - Lamma Bada Yatathanna [flac]
DR11 -1.10 dB -16.20 dB 4:45 14 - Ya Jarati [flac]
DR11 -0.00 dB -15.29 dB 3:31 15 - Ya Mo [flac]
DR10 -2.50 dB -16.41 dB 5:08 16 - Ya Henna [flac]
DR14 -0.00 dB -19.96 dB 3:35 17 - Ya Layl [flac]
DR11 -1.70 dB -16.55 dB 4:51 18 - Tal'a Min Bayt Abuha [flac]
DR12 -0.00 dB -17.15 dB 6:07 19 - Hal Asmar Allon [flac]
DR16 -0.00 dB -20.81 dB 5:50 20 - 'Ajga [flac]
DR11 -0.50 dB -16.48 dB 3:28 21 - Lau Rahal Sawti [flac]
----------------------------------------------------------------------------------------------
Number of files: 21
Official DR value: DR11

Sampling rate: 44100 Hz
Average bitrate: 785kbs
Bits per sample: 16 bit


Trackers List

Tracker Name
udp://tracker.piratepublic.com:1337/announce
udp://tracker.pirateparty.gr:6969/announce
udp://tracker.coppersurfer.tk:6969/announce
udp://tracker.leechers-paradise.org:6969/announce
udp://9.rarbg.com:2710/announce
http://p4p.arenabg.com:1337/announce
http://explodie.org:6969/announce
udp://tracker.opentrackr.org:1337/announce
udp://exodus.desync.com:6969/announce
udp://tracker.leechers-paradise.org:6969/announce
udp://tracker.zer0day.to:1337/announce
udp://open.demonii.si:1337/announce
udp://exodus.desync.com:6969/announce
udp://tracker.iamhansen.xyz:2000/announce

Torrent File Content

Various Artists - Rough Guide to Arabic Café (2014) Flac
  • 01. Maurice El Medioni - Bienvenue_Abiadi.flac (33.6 MB)
  • 02. Salamat - Elleya Misafir.flac (42.5 MB)
  • 03. Abdel Gadir Salim - Gamearina.flac (28.1 MB)
  • 04. Mahmoud Fadl - We Daret El Ayam.flac (34.0 MB)
  • 05. Sayed Khalifa - Samra Oya.flac (41.4 MB)
  • 06. Daramad - Isfahan.flac (40.8 MB)
  • 07. Salwa Abou Greisha - Wainek.flac (31.4 MB)
  • 08. Ramzi Aburedwan - Tahrir.flac (36.7 MB)
  • 09. Ali Hassan Kuban - Abu Simbel.flac (23.8 MB)
  • 10. Akim El Sikameya - Ya Waadi.flac (25.6 MB)
  • 11. Groupe Mazagan - La Vignette.flac (31.4 MB)
  • 12. Jalilah - Tales of the Sahara.flac (62.5 MB)
  • 13. Dozan - Lamma Bada Yatathanna.flac (18.0 MB)
  • 14. Dozan - Ya Jarati.flac (24.9 MB)
  • 15. Dozan - Ya Mo.flac (18.8 MB)
  • 16. Dozan - Ya Henna.flac (28.3 MB)
  • 17. Dozan - Ya Layl.flac (17.3 MB)
  • 18. Dozan - Tal'a Min Bayt Abuha.flac (26.0 MB)
  • 19. Dozan - Hal Asmar Allon.flac (31.9 MB)
  • 20. Dozan - 'Ajga.flac (28.2 MB)
  • 21. Dozan - Lau Rahal Sawti.flac (16.5 MB)
  • cover.jpg (400.4 KB)
  • dr14.txt (1.9 KB)


Latest Searches