Ultimate.Avengers.2.720p.x264.ITA.ENG.MadHex


    Seeders : 1      Leechers : 0

Downloads : 15
Language : Italian
tag : anime,x264,720p,ita,eng,madhex,




Description




[INFO]

Titolo originale Ultimate Avengers 2: Rise of the Panther
Lingua originale spagnolo, inglese
Paese di produzione Stati Uniti d'America
Anno 2006
Durata 73 min
Rapporto 1,78:1
Genere animazione, azione, avventura, fantascienza
Regia Will Meugniot, Dick Sebast
Soggetto Mark Millar, Bryan Hitch, Greg Johnson, Craig Kyle
Sceneggiatura Greg Johnson
Produttore Bob Richardson
Produttore esecutivo Avi Arad, Craig Kyle, Eric S. Rollman
Casa di produzione Marvel Studios, MLG Productions 2
Distribuzione in italiano Eagle Pictures
Montaggio George Rizkallah
Effetti speciali Kathy Valladares, Matt Mary
Musiche Guy Michelmore
Character design Steven E. Gordon
Animatori Tae-Ho Han
Sfondi Fedja Jovanovic

[TRAMA]

T'Challa, principe di Wakanda, fa ritorno nel suo paese e scopre che questo è sotto attacco della razza aliena conosciuta come Chitauri. Il padre di T'Challa viene ucciso e i Chitauri sono liberi di rubare il vibranio, una lega presente solo in Wakanda e con cui gli alieni costruiscono le loro armi e navicelle. T'Challa assume l'identità di Pantera Nera e chiede aiuto a Capitan America per battere i nemici e vendicare la morte di suo padre.

Nick Fury, direttore dello S.H.I.E.L.D., riunisce, così, gli Ultimates composti dal già citato Capitan America, Iron Man, Giant-Man, Wasp e Vedova Nera. Dopo un battibecco iniziale con i soldati del Wakanda, che vede Wasp venir ferita e lo scudo di Capitan America venir rubato, gli Ultimates si uniscono a Pantera Nera per combattere i Chitauri. A loro si unisce anche Thor.

Intanto il dottor Bruce Banner, rinchiuso sotto sorveglianza, scopre che i raggi gamma indeboliscono il vibranio; per questo manda in Wakanda la sua amata Betty Ross, munita di un'arma spara-raggi gamma così da aiutare gli Ultimates nella difficile impresa. Grazie a questo, il vibranio s'indebolisce e i Chitauri vengono sconfitti, non prima di aver ucciso Giant-Man.

Pantera Nera ringrazia gli Ultimates e questi fanno ritorno a casa, scoprendo che Banner, tramutatosi nuovamente in Hulk è fuggito dalla sua prigionia.

[SCREENSHOT]



[REPORT]

Code:



Video
ID : 1
Format : AVC
Format/Info : Advanced Video Codec
Format profile : [email protected]
Format settings : CABAC / 6 Ref Frames
Format settings, CABAC : Yes
Format settings, Reference frames : 6 frames
Codec ID : avc1
Codec ID/Info : Advanced Video Coding
Duration : 1 h 9 min
Bit rate : 1 841 kb/s
Width : 720 pixels
Height : 404 pixels
Display aspect ratio : 16:9
Frame rate mode : Constant
Frame rate : 25.000 FPS
Color space : YUV
Chroma subsampling : 4:2:0
Bit depth : 8 bits
Scan type : Progressive
Bits/(Pixel*Frame) : 0.253
Stream size : 920 MiB (82%)
Title : Ultimate.Avengers.2.2006
Writing library : x264 core 148 r2795 aaa9aa8
Encoding settings : cabac=1 / ref=6 / deblock=1:1:1 / analyse=0x3:0x113 / me=hex / subme=7 / psy=1 / psy_rd=0.40:0.00 / mixed_ref=1 / me_range=16 / chroma_me=1 / trellis=1 / 8x8dct=1 / cqm=0 / deadzone=21,11 / fast_pskip=1 / chroma_qp_offset=-2 / threads=12 / lookahead_threads=2 / sliced_threads=0 / nr=0 / decimate=1 / interlaced=0 / bluray_compat=0 / constrained_intra=0 / bframes=5 / b_pyramid=2 / b_adapt=1 / b_bias=0 / direct=1 / weightb=1 / open_gop=0 / weightp=2 / keyint=250 / keyint_min=25 / scenecut=40 / intra_refresh=0 / rc_lookahead=40 / rc=crf / mbtree=1 / crf=12.0 / qcomp=0.60 / qpmin=0 / qpmax=69 / qpstep=4 / ip_ratio=1.40 / aq=1:0.60
Language : Italian
Menus : 4
Codec configuration box : avcC

Audio #1
ID : 2
Format : AAC LC
Format/Info : Advanced Audio Codec Low Complexity
Codec ID : mp4a-40-2
Duration : 1 h 9 min
Bit rate mode : Constant
Bit rate : 198 kb/s
Channel(s) : 6 channels
Channel layout : C L R Ls Rs LFE
Sampling rate : 48.0 kHz
Frame rate : 46.875 FPS (1024 SPF)
Compression mode : Lossy
Stream size : 98.7 MiB (9%)
Title : AC3 5.1 ITA
Language : Italian
Default : Yes
Alternate group : 1
Menus : 4

Audio #2
ID : 3
Format : AAC LC
Format/Info : Advanced Audio Codec Low Complexity
Codec ID : mp4a-40-2
Duration : 1 h 9 min
Bit rate mode : Constant
Bit rate : 197 kb/s
Channel(s) : 6 channels
Channel layout : C L R Ls Rs LFE
Sampling rate : 48.0 kHz
Frame rate : 46.875 FPS (1024 SPF)
Compression mode : Lossy
Stream size : 98.5 MiB (9%)
Title : AC3 5.1 ENG
Language : English
Default : No
Alternate group : 1
Menus : 4

Menu #1
ID : 4
Codec ID : text
Duration : 1 h 9 min
Language : English
Bit rate mode : CBR
Menu For : 1,2,3
00:00:00.000 : Chapter 1
00:08:42.760 : Chapter 2
00:17:50.360 : Chapter 3
00:26:29.640 : Chapter 4
00:35:49.960 : Chapter 5
00:43:15.640 : Chapter 6
00:53:03.480 : Chapter 7
01:02:05.920 : Chapter 8
Bit rate mode : Constant

Menu #2
00:00:00.000 : Chapter 1
00:08:42.760 : Chapter 2
00:17:50.360 : Chapter 3
00:26:29.640 : Chapter 4
00:35:49.960 : Chapter 5
00:43:15.640 : Chapter 6
00:53:03.480 : Chapter 7
01:02:05.920 : Chapter 8








Trackers List

Tracker Name
http://bobbialbano.com:6969/announce
http://explodie.org:6969/announce
http://h4.trakx.nibba.trade:80/announce
http://retracker.sevstar.net:2710/announce
http://0205.uptm.ch:6969/announce
http://share.camoe.cn:8080/announce
http://t.nyaatracker.com/announce
http://t.nyaatracker.com:80/announce
http://t.overflow.biz:6969/announce
http://torrenttracker.nwc.acsalaska.net:6969/announce
http://pow7.com:80/announce
http://tracker.anonwebz.xyz:8080/announce
http://tracker.bt4g.com:2095/announce
http://tracker.files.fm:6969/announce
http://tracker.gbitt.info:80/announce
http://vpn.flying-datacenter.de:6969/announce
http://vps02.net.orel.ru:80/announce
https://1337.abcvg.info:443/announce
https://tracker.imgoingto.icu:443/announce
https://tracker.nitrix.me:443/announce
https://tracker.tamersunion.org:443/announce
https://trakx.herokuapp.com:443/announce
https://w.wwwww.wtf:443/announce
udp://9.rarbg.com:2710/announce
udp://9.rarbg.to:2710/announce
udp://9.rarbg.to:2720/announce
udp://9.rarbg.to:2730/announce
udp://9.rarbg.to:2740/announce
udp://9.rarbg.to:2770/announce
udp://9.rarbg.to:2790/announce
udp://exodus.desync.com:6969/announce
udp://explodie.org:6969/announce
udp://ipv4.tracker.harry.lu:80/announce
udp://open.stealth.si:80/announce
udp://opentor.org:2710/announce
udp://p4p.arenabg.com:1337/announce
udp://retracker.lanta-net.ru:2710/announce
udp://tracker.cyberia.is:6969/announce
udp://tracker.leechers-paradise.org:6969/announce
udp://tracker.moeking.me:6969/announce
udp://tracker.open-internet.nl:6969/announce
udp://tracker.openbittorrent.com:80/announce
udp://tracker.opentrackr.org:1337/announce
udp://tracker.tiny-vps.com:6969/announce
udp://tracker.torrent.eu.org:451/announce
udp://tracker.yoshi210.com:6969/announce

Torrent File Content

  • Ultimate.Avengers.2.720p.x264.ITA.ENG.MadHex.mp4 (1.1 GB)


Latest Searches