The.Truth.Beneath.2016.1080p.WEB-DL.x264.AAC.HORiZON-ArtSubs


    Seeders : 3      Leechers : 2

Movie : The Truth Beneath
Downloads : 1
Language : Korean
tag : southkorea,drama,thriller,awards,
Genres : Thriller,
Release date : 2016
Summary : After an extremely close national assembly race, Jong-chan wins the nomination of his party. He and his wife Yeon-hong are fully committed to the campaign and when their teenager daughter Min-jin goes missing, Jong-chan convinces Yeon-hong not to notify the authorities fearing negative publicity. With the election imminent, Yeon-hong decides to look for her daughter, but instead uncovers a twisted series of conspiracy, secrets, and lies surrounding Min-jin's disappearance.




Description

Release: The.Truth.Beneath.2016.1080p.WEB-DL.x264.AAC.HORiZON-ArtSubs



IMDB: https://www.imdb.com/title/tt5768474/

Subtitle: English

Plot: After an extremely close national assembly race, Jong-chan wins the nomination of his party. He and his wife Yeon-hong are fully committed to the campaign and when their teenager daughter Min-jin goes missing, Jong-chan convinces Yeon-hong not to notify the authorities fearing negative publicity. With the election imminent, Yeon-hong decides to look for her daughter, but instead uncovers a twisted series of conspiracy, secrets, and lies surrounding Min-jin's disappearance.

Complete name                            : The.Truth.Beneath.2016.1080p.WEB-DL.x264.AAC.HORiZON-ArtSubs.mkv
Format : Matroska
Format version : Version 4
File size : 4.45 GiB
Duration : 1 h 42 min
Overall bit rate : 6 210 kb/s
Encoded date : UTC 2020-09-14 13:03:01
Writing application : mkvmerge v48.0.0 ('Fortress Around Your Heart') 64-bit
Writing library : libebml v1.4.0 + libmatroska v1.6.0

Video
ID : 1
Format : AVC
Format/Info : Advanced Video Codec
Format profile : [email protected]
Format settings : CABAC / 4 Ref Frames
Format settings, CABAC : Yes
Format settings, Reference : 4 frames
Codec ID : V_MPEG4/ISO/AVC
Duration : 1 h 42 min
Bit rate : 5 900 kb/s
Width : 1 920 pixels
Height : 800 pixels
Display aspect ratio : 2.40:1
Frame rate mode : Constant
Frame rate : 23.976 (24000/1001) FPS
Color space : YUV
Chroma subsampling : 4:2:0
Bit depth : 8 bits
Scan type : Progressive
Bits/(Pixel*Frame) : 0.160
Stream size : 4.22 GiB (95%)
Writing library : x264 core 157 r2935 545de2f
Encoding settings : cabac=1 / ref=4 / deblock=1:-3:-3 / analyse=0x3:0x133 / me=umh / subme=10 / psy=1 / psy_rd=1.00:0.25 / mixed_ref=1 / me_range=24 / chroma_me=1 / trellis=2 / 8x8dct=1 / cqm=0 / deadzone=6,6 / fast_pskip=1 / chroma_qp_offset=-4 / threads=6 / lookahead_threads=1 / sliced_threads=0 / nr=0 / decimate=0 / interlaced=0 / bluray_compat=0 / constrained_intra=0 / bframes=8 / b_pyramid=2 / b_adapt=2 / b_bias=0 / direct=3 / weightb=1 / open_gop=0 / weightp=2 / keyint=240 / keyint_min=24 / scenecut=40 / intra_refresh=0 / rc_lookahead=60 / rc=2pass / mbtree=1 / bitrate=5900 / ratetol=1.0 / qcomp=0.75 / qpmin=0 / qpmax=69 / qpstep=4 / cplxblur=20.0 / qblur=0.5 / vbv_maxrate=25000 / vbv_bufsize=78125 / nal_hrd=none / filler=0 / ip_ratio=1.10 / aq=3:1.20
Default : Yes
Forced : No
Color range : Limited
Color primaries : BT.709
Transfer characteristics : BT.709
Matrix coefficients : BT.709

Audio
ID : 2
Format : AAC LC
Format/Info : Advanced Audio Codec Low Complexity
Codec ID : A_AAC-2
Duration : 1 h 42 min
Bit rate : 313 kb/s
Channel(s) : 2 channels
Channel layout : L R
Sampling rate : 48.0 kHz
Frame rate : 46.875 FPS (1024 SPF)
Compression mode : Lossy
Delay relative to video : -21 ms
Stream size : 230 MiB (5%)
Language : Korean
Default : Yes
Forced : No

Text
ID : 3
Format : ASS
Codec ID : S_TEXT/ASS
Codec ID/Info : Advanced Sub Station Alpha
Duration : 1 h 39 min
Bit rate : 65 b/s
Count of elements : 934
Compression mode : Lossless
Stream size : 47.3 KiB (0%)
Language : English
Default : No
Forced : No


SCREENSHOTS:







Trackers List

Tracker Name
udp://tracker.opentrackr.org:1337/announce
udp://tracker.coppersurfer.tk:6969/announce
udp://tracker.leechers-paradise.org:6969/announce

Torrent File Content

  • The.Truth.Beneath.2016.1080p.WEB-DL.x264.AAC.HORiZON-ArtSubs.mkv (4.5 GB)

Related torrents

Torrent Name Added Size Seed Leech
2 years ago 750.3 MB 5 0
2 years ago 3 GB 2 0


Latest Searches