The Sky at Night 14.September.2020 Life on Venus


    Seeders : 1      Leechers : 0

Downloads : 24
Language : English




Description

The Sky at Night 14.September.2020 Life on Venus

This month, the team investigates some exciting new developments in astronomy.

First broadcast: 14 September 2020
Duration: 30 minutes

Torrent dead? Request reseed at torrentgalaxy.org - or ask at elsonroa at tutanota.com

Media info:-
General
Format profile : Base Media
Codec ID : isom (isom/iso2/avc1/mp41)
File size : 1.03 GiB
Duration : 29mn 29s
Overall bit rate mode : Variable
Overall bit rate : 5 021 Kbps

Video
ID : 1
Format : AVC
Format/Info : Advanced Video Codec
Format profile : [email protected]
Format settings, CABAC : Yes
Format settings, ReFrames : 4 frames
Codec ID : avc1
Codec ID/Info : Advanced Video Coding
Duration : 29mn 29s
Bit rate : 4 885 Kbps
Width : 1 280 pixels
Height : 720 pixels
Display aspect ratio : 16:9
Frame rate mode : Constant
Frame rate : 50.000 fps
Color space : YUV
Chroma subsampling : 4:2:0
Bit depth : 8 bits
Scan type : Progressive
Bits/(Pixel*Frame) : 0.106
Stream size : 1.01 GiB (97%)
Encoded date : UTC 1904-01-01 00:00:00
Tagged date : UTC 1904-01-01 00:00:00
Color range : Limited
Color primaries : BT.709
Transfer characteristics : BT.709
Matrix coefficients : BT.709

Audio
ID : 2
Format : AAC
Format/Info : Advanced Audio Codec
Format profile : LC
Codec ID : 40
Duration : 29mn 29s
Bit rate mode : Variable
Bit rate : 128 Kbps
Maximum bit rate : 131 Kbps
Channel(s) : 2 channels
Channel positions : Front: L R
Sampling rate : 48.0 KHz
Frame rate : 46.875 fps (1024 spf)
Compression mode : Lossy
Stream size : 27.0 MiB (3%)
Language : English
Default : Yes



Trackers List

Tracker Name
https://tracker.imgoingto.icu:443/announce
udp://tracker.shkinev.me:6969/announce
udp://discord.heihachi.pw:6969/announce
udp://cutiegirl.ru:6969/announce
udp://fe.dealclub.de:6969/announce
udp://ln.mtahost.co:6969/announce
udp://vibe.community:6969/announce

Torrent File Content

The Sky at Night 14.September.2020 Life on Venus
  • The Sky at Night 14.September.2020 Life on Venus.srt (75.4 KB)
  • About this torrent.txt (1.5 KB)
  • Downloaded from Demonoid - www.dnoid.is.txt (0.1 KB)
  • If this torrent is dead.txt (0.1 KB)
  • The Sky at Night 14.September.2020 Life on Venus.jpg (829.7 KB)
  • The Sky at Night 14.September.2020 Life on Venus.mp4 (1.0 GB)
  • Torrent Downloaded From 1337x.to.txt (0.0 KB)
  • [TGx]Downloaded from torrentgalaxy.to.txt (0.5 KB)


Latest Searches