Star Trek: Deep Space Nine (1993) Season 05 S05 + Featurettes (1080p DVD x265 HEVC AI 10bit AAC 5.1 Joy) [UTR]


    Seeders : 23      Leechers : 9

Downloads : 390
Language : English
tag : x265,hevc,utr,joy,a.i.enhance,




Description



Media Information
Star Trek Deep Space Nine! I worked the raw DVDs through AI Inference software to improve the image and increase the resolution to 1080p. The end result is much better than any DVD or web-rip provided by the offical releases.

This release includes:
Every Episode in 1080p two pass slow x265
All the Featurettes and Deleted scenes in 1080p

Note: There is a single cut in Ep 1 where I repaired an glitch that caused audio sync issue.

Media Information

Code:

General
Format : Matroska
Format version : Version 4 / Version 2
File size : 451 MiB
Duration : 45 min 29 s
Overall bit rate : 1 384 kb/s
Movie name : DS9 S05E01 Apocalypse Rising [1080p x265 10bit Joy][UTR]
Encoded date : UTC 2020-09-11 00:28:37
Writing application : mkvmerge v44.0.0 ('Domino') 64-bit
Writing library : libebml v1.3.10 + libmatroska v1.5.2

Video
ID : 1
Format : HEVC
Format/Info : High Efficiency Video Coding
Format profile : Main [email protected]@Main
Codec ID : V_MPEGH/ISO/HEVC
Duration : 45 min 29 s
Bit rate : 1 201 kb/s
Width : 1 440 pixels
Height : 1 080 pixels
Display aspect ratio : 4:3
Frame rate mode : Constant
Frame rate : 23.976 (24000/1001) FPS
Color space : YUV
Chroma subsampling : 4:2:0
Bit depth : 10 bits
Bits/(Pixel*Frame) : 0.032
Stream size : 391 MiB (87%)
Writing library : x265 3.3+2-gbe2d82093:[Windows][GCC 9.2.0][64 bit] 10bit
Encoding settings : cpuid=1111039 / frame-threads=3 / numa-pools=8 / wpp / no-pmode / no-pme / no-psnr / ssim / log-level=2 / input-csp=1 / input-res=1440x1080 / interlace=0 / total-frames=65450 / level-idc=0 / high-tier=1 / uhd-bd=0 / ref=4 / no-allow-non-conformance / no-repeat-headers / annexb / no-aud / no-hrd / info / hash=0 / no-temporal-layers / open-gop / min-keyint=23 / keyint=250 / gop-lookahead=0 / bframes=8 / b-adapt=2 / b-pyramid / bframe-bias=40 / rc-lookahead=80 / lookahead-slices=4 / scenecut=40 / hist-scenecut=0 / radl=0 / no-splice / no-intra-refresh / ctu=64 / min-cu-size=8 / rect / no-amp / max-tu-size=32 / tu-inter-depth=1 / tu-intra-depth=1 / limit-tu=0 / rdoq-level=2 / dynamic-rd=0.00 / ssim-rd / signhide / no-tskip / nr-intra=0 / nr-inter=0 / constrained-intra / strong-intra-smoothing / max-merge=3 / limit-refs=3 / limit-modes / me=3 / subme=3 / merange=57 / temporal-mvp / no-frame-dup / no-hme / weightp / no-weightb / no-analyze-src-pics / deblock=0:0 / sao / no-sao-non-deblock / rd=4 / selective-sao=4 / early-skip / rskip / no-fast-intra / no-tskip-fast / no-cu-lossless / no-b-intra / splitrd-skip / rdpenalty=0 / psy-rd=2.45 / psy-rdoq=1.50 / no-rd-refine / no-lossless / cbqpoffs=0 / crqpoffs=0 / rc=abr / bitrate=1200 / qcomp=0.60 / qpstep=4 / stats-write=0 / stats-read=2 / cplxblur=20.0 / qblur=0.5 / ipratio=1.40 / pbratio=1.30 / aq-mode=3 / aq-strength=0.40 / cutree / zone-count=0 / no-strict-cbr / qg-size=32 / no-rc-grain / qpmax=69 / qpmin=0 / no-const-vbv / sar=0 / overscan=0 / videoformat=5 / range=0 / colorprim=2 / transfer=2 / colormatrix=2 / chromaloc=0 / display-window=0 / cll=0,0 / min-luma=0 / max-luma=1023 / log2-max-poc-lsb=8 / vui-timing-info / vui-hrd-info / slices=1 / no-opt-qp-pps / no-opt-ref-list-length-pps / multi-pass-opt-rps / scenecut-bias=0.05 / hist-threshold=0.01 / no-opt-cu-delta-qp / no-aq-motion / no-hdr10 / no-hdr10-opt / no-dhdr10-opt / no-idr-recovery-sei / analysis-load / analysis-reuse-level=10 / analysis-save-reuse-level=0 / analysis-load-reuse-level=10 / scale-factor=0 / refine-intra=0 / refine-inter=0 / refine-mv=1 / refine-ctu-distortion=0 / limit-sao / ctu-info=0 / no-lowpass-dct / refine-analysis-type=0 / copy-pic=1 / max-ausize-factor=1.0 / no-dynamic-refine / no-single-sei / no-hevc-aq / no-svt / no-field / qp-adaptation-range=1.00 / no-scenecut-aware-qpconformance-window-offsets / right=0 / bottom=0
Default : Yes
Forced : No

Audio
ID : 2
Format : AAC
Format/Info : Advanced Audio Codec
Format profile : HE-AACv2 / HE-AAC / LC
Codec ID : A_AAC
Duration : 45 min 29 s
Bit rate : 179 kb/s
Channel(s) : 6 channels
Channel(s)_Original : 2 channels / 14 channels / 14 channels
Channel positions : Front: L R / Front: L C R, Side: 5, Back: 4, LFE= 2 / Front: L C R, Side: 5, Back: 4, LFE= 2
Sampling rate : 48.0 kHz / 48.0 kHz / 24.0 kHz
Frame rate : 23.438 FPS (1024 spf)
Compression mode : Lossy
Delay relative to video : 31 ms
Stream size : 58.2 MiB (13%)
Language : English
Default : No
Forced : No

Subtitle #1
ID : 3
Format : VobSub
Muxing mode : zlib
Codec ID : S_VOBSUB
Codec ID/Info : Picture based subtitle format used on DVDs
Duration : 44 min 21 s
Bit rate : 4 747 b/s
Count of elements : 748
Stream size : 1.51 MiB (0%)
Language : English
Default : No
Forced : No

Subtitle #2
ID : 4
Format : UTF-8
Codec ID : S_TEXT/UTF8
Codec ID/Info : UTF-8 Plain Text
Duration : 44 min 34 s
Bit rate : 81 b/s
Count of elements : 814
Stream size : 26.5 KiB (0%)
Language : English
Default : No
Forced : No

Menu
00:00:00.000 : en:Chapter 01
00:05:58.591 : en:Chapter 02
00:11:59.952 : en:Chapter 03
00:18:39.918 : en:Chapter 04
00:22:41.693 : en:Chapter 05
00:31:19.911 : en:Chapter 06
00:35:32.196 : en:Chapter 07
00:41:52.610 : en:Chapter 08



Source Information

Code:

Release:
DS9.S05.1080p.DVD.AI.AC3.UTR [34.8 GB]


Code:


Note From UTR
Whilst we are happy for our releases to be re-posted on a platform we aren't on, please do so in an 'as-is' format. We ask that you do not create a new torrent, include all descriptions you see above including the UTR logo, tags, notes and screenshots. If you'd like to become a permanent poster on a website we don't post to, feel free to get in contact with a UTR member.
If possible please donate for seedboxes.
BTC - 1QA5fum5AyXvWzdVCkQzUNvw3Ef15fHRaR
Monero - 8AuksPSzY7fen3HHT1a2342PgVy4J93MKfXG3AAcayV76miTyJ3sNfn38srwrpLirGfeR5DwhTL8GW8pdQgT7bZcJ25ynMx
Dash - Xh4mNs6uwZdpCEX2HSEVwGvPD7yKxZ1Ccd
Ethereum - 0x51c06c94e74c16735a7a6e841ad29fc90a84eb1f




Trackers List

Tracker Name
udp://tracker.opentrackr.org:1337/announce
udp://9.rarbg.com:2710/announce
udp://9.rarbg.to:2710/announce
udp://tracker.torrent.eu.org:451/announce
udp://tracker.tiny-vps.com:6969/announce
udp://open.demonii.si:1337/announce
udp://exodus.desync.com:6969/announce

Torrent File Content

Star Trek Deep Space Nine Season 5 [1080p DVD x265 10bit FS98 Joy]
  • DS9 S05E07 Let He Who Is Without Sin… [1080p x265 10bit Joy].mkv (453.3 MB)
  • DS9 S05E02 The Ship [1080p x265 10bit Joy].mkv (450.2 MB)
  • DS9 S05E03 Looking For Par'Mach In All The Wrong Places [1080p x265 10bit Joy].mkv (448.2 MB)
  • DS9 S05E04 …Nor The Battle To The Strong [1080p x265 10bit Joy].mkv (451.0 MB)
  • DS9 S05E05 The Assignment [1080p x265 10bit Joy].mkv (448.6 MB)
  • DS9 S05E06 Trials And Tribble-ations [1080p x265 10bit Joy].mkv (449.4 MB)
  • DS9 S05E01 Apocalypse Rising [1080p x265 10bit Joy].mkv (450.5 MB)
  • DS9 S05E08 Things Past [1080p x265 10bit Joy].mkv (450.5 MB)
  • DS9 S05E09 The Ascent [1080p x265 10bit Joy].mkv (449.9 MB)
  • DS9 S05E10 Rapture [1080p x265 10bit Joy].mkv (449.6 MB)
  • DS9 S05E11 The Darkness And The Light [1080p x265 10bit Joy] (1).mkv (450.5 MB)
  • DS9 S05E12 The Begotten [1080p x265 10bit Joy].mkv (447.4 MB)
  • DS9 S05E13 For The Uniform [1080p x265 10bit Joy].mkv (449.2 MB)
  • DS9 S05E14 In Purgatory's Shadow [1080p x265 10bit Joy].mkv (450.8 MB)
  • DS9 S05E15 By Inferno's Light [1080p x265 10bit Joy].mkv (451.0 MB)
  • DS9 S05E16 Doctor Bashir, I Presume [1080p x265 10bit Joy].mkv (447.1 MB)
  • DS9 S05E17 A Simple Investigation [1080p x265 10bit Joy].mkv (447.5 MB)
  • DS9 S05E18 Business As Usual [1080p x265 10bit Joy].mkv (447.3 MB)
  • DS9 S05E19 Ties Of Blood And Water [1080p x265 10bit Joy].mkv (448.1 MB)
  • DS9 S05E20 Ferengi Love Songs [1080p x265 10bit Joy].mkv (448.7 MB)
  • DS9 S05E21 Soldiers Of The Empire [1080p x265 10bit Joy].mkv (449.8 MB)
  • DS9 S05E22 Children Of Time [1080p x265 10bit Joy].mkv (450.8 MB)
  • DS9 S05E23 Blaze Of Glory [1080p x265 10bit Joy].mkv (449.8 MB)
  • DS9 S05E24 Empok Nor [1080p x265 10bit Joy].mkv (450.4 MB)
  • DS9 S05E25 In The Cards [1080p x265 10bit Joy].mkv (448.6 MB)
  • DS9 S05E26 Call To Arms [1080p x265 10bit Joy].mkv (449.9 MB)
  • Encoded by JoyBell (UTR).txt (3.6 KB)
  • folder.jpg (167.5 KB)
  • How to play HEVC (THIS FILE).txt (3.8 KB)
  • Ninite K-Lite Codecs Unattended Silent Installer and Updater.website (0.5 KB)
  • Featurettes
    • Actor Armin Shimmerman talks about the makeup for the episode 'Ferengi Love Songs'.mkv (31.3 MB)
    • Actor J.G. Hertzler talks about the extension of the role of Martok.mkv (33.0 MB)
    • Actor Jeffery Combs talks about getting the role of Weyoun.mkv (38.6 MB)
    • Actor Nana Visitor talks about shooting Gamur's death scene.mkv (27.3 MB)
    • Actor Rene Auberjonois talks about his affection for the episode 'The Begotten'.mkv (28.0 MB)
    • Actor Rene Auberjonois talks about working with actor Armin Shimmerman.mkv (28.6 MB)
    • Actress Chase Masterson talks about working with Robert Picardo.mkv (28.4 MB)
    • Actress Nana Visitor talks about shooting whilst pregnant.mkv (20.5 MB)
    • Crew Dossier Miles O'Brien.mkv (105.3 MB)
    • Inside DS9 With Mike Okuda.mkv (67.8 MB)
    • Michael Westmore's Aliens Season 5.mkv (68.2 MB)
    • Trials And Tribble-ations A Historic Endeavor.mkv (153.2 MB)
    • Trials And Tribble-ations Uniting Two Legends.mkv (157.3 MB)
    • Writer Producer Robert Hewitt Wolfe talks about leaving the show at the end of season 5.mkv (19.5 MB)
    • Writer Ronald D. Moore talks about the original idea for the episode 'Soldiers of the Empire'.mkv (23.4 MB)


Latest Searches