Sia - We Are Born (2010) Flac


    Seeders : 29      Leechers : 5

Downloads : 111
Language : English
tag : was95,lossless,music,




Description



Quality-Lossless
Release-2010
Duration-00:46:25
File Size-365 MB
Genre-Pop
Cover Size-800px

----------------------------------------------------------------------------------------------
Analyzed: We Are Born / Artist: Sia
----------------------------------------------------------------------------------------------
DR Peak RMS Duration Title [codec]
----------------------------------------------------------------------------------------------
DR6 -0.10 dB -7.84 dB 3:37 01 - The Fight [flac]
DR7 -0.10 dB -8.56 dB 3:58 02 - Clap Your Hands [flac]
DR6 -0.10 dB -6.70 dB 2:39 03 - Stop Trying [flac]
DR7 -0.10 dB -7.99 dB 3:10 04 - You've Changed [flac]
DR5 -0.10 dB -7.41 dB 3:56 05 - Be Good To Me [flac]
DR5 -0.10 dB -7.56 dB 2:56 06 - Bring Night [flac]
DR6 -0.10 dB -7.43 dB 3:25 07 - Hurting Me Now [flac]
DR6 -0.10 dB -8.95 dB 3:33 08 - Never Gonna Leave Me [flac]
DR6 -0.00 dB -7.73 dB 3:43 09 - Cloud [flac]
DR6 -0.10 dB -7.85 dB 3:41 10 - I'm In Here [flac]
DR6 -0.10 dB -6.99 dB 2:54 11 - The Co-Dependent [flac]
DR6 -0.10 dB -9.12 dB 4:17 12 - Big Girl Little Girl [flac]
DR6 -0.10 dB -8.47 dB 4:29 13 - Oh Father [flac]
----------------------------------------------------------------------------------------------
Number of files: 13
Official DR value: DR6

Sampling rate: 44100 Hz
Average bitrate: 1052kbs
Bits per sample: 16 bit


Trackers List

Tracker Name
udp://tracker.piratepublic.com:1337/announce
udp://tracker.pirateparty.gr:6969/announce
udp://tracker.coppersurfer.tk:6969/announce
udp://tracker.leechers-paradise.org:6969/announce
udp://9.rarbg.com:2710/announce
http://p4p.arenabg.com:1337/announce
http://explodie.org:6969/announce
udp://tracker.opentrackr.org:1337/announce
udp://exodus.desync.com:6969/announce
udp://tracker.leechers-paradise.org:6969/announce
udp://tracker.zer0day.to:1337/announce
udp://open.demonii.si:1337/announce
udp://exodus.desync.com:6969/announce
udp://tracker.iamhansen.xyz:2000/announce

Torrent File Content

Sia - We Are Born (2010) Flac
  • 01 - The Fight.flac (28.1 MB)
  • 02 - Clap Your Hands.flac (30.9 MB)
  • 03 - Stop Trying.flac (21.6 MB)
  • 04 - You've Changed.flac (25.0 MB)
  • 05 - Be Good To Me.flac (29.8 MB)
  • 06 - Bring Night.flac (23.3 MB)
  • 07 - Hurting Me Now.flac (26.9 MB)
  • 08 - Never Gonna Leave Me.flac (26.5 MB)
  • 09 - Cloud.flac (29.2 MB)
  • 10 - I'm In Here.flac (25.1 MB)
  • 11 - The Co-Dependent.flac (22.7 MB)
  • 12 - Big Girl Little Girl.flac (29.3 MB)
  • 13 - Oh Father.flac (29.3 MB)
  • cover.png (837.3 KB)
  • dr14.txt (1.4 KB)


Latest Searches