Sfondamento.Dei.Cieli.Gurren.Lagann.The.Movie.II.The.Lights.In.The.Sky.Are.Stars.1080p.x264.ITA.JAP.MadHex


    Seeders : 1      Leechers : 4

Downloads : 8
Language : Italian
tag : anime,x264,1080p,ita,jap,madhex,




Description





[INFO]

Titolo originale: Gekijô ban Tengen toppa guren ragan: Ragan hen
Regia: Hiroyuki Imaishi
Interpreti: Gainax, Fabio Boccanera, Letizia Ciampa, Valentina Favazza, Mauro Gravina, Vittorio Guerrieri, Taku Iwasaki, Eiichi Kamagata, Davide Lepore, Atsushi Nishigori, Gabriele Patriarca, Davide Perino, Francesco Prando, Nino Prester, Alessandro Rigotti
Paese: Giappone
Anno: 2009

[TRAMA]

Sconfitti gli uomini-bestia del regno di Lordgenome, gli uomini ritornano a vivere sulla superficie della Terra sotto il comando di Simon e della brigata Dai-Gurren, che si dedicano all'amministrazione della cosa pubblica in tempo di pace. Ma proprio quando Simon chiede a Nia di sposarlo ella si rivela per quello che è: una spia inconsapevole della misteriosa stirpe degli Anti-Spiral, creature che temono l'evoluzione della Spirale come possibile innesco della Spiral Nemesis, ovvero la totale distruzione dell'universo.


[SCREENSHOT]



[REPORT]

Code:



Video
ID : 1
Format : AVC
Format/Info : Advanced Video Codec
Format profile : [email protected]
Format settings : CABAC / 6 Ref Frames
Format settings, CABAC : Yes
Format settings, Reference frames : 6 frames
Codec ID : avc1
Codec ID/Info : Advanced Video Coding
Duration : 2 h 5 min
Bit rate : 5 549 kb/s
Width : 1 920 pixels
Height : 1 080 pixels
Display aspect ratio : 16:9
Frame rate mode : Constant
Frame rate : 23.976 (24000/1001) FPS
Color space : YUV
Chroma subsampling : 4:2:0
Bit depth : 8 bits
Scan type : Progressive
Bits/(Pixel*Frame) : 0.112
Stream size : 4.88 GiB (93%)
Title : by stress
Writing library : x264 core 148 r2795 aaa9aa8
Encoding settings : cabac=1 / ref=6 / deblock=1:1:1 / analyse=0x3:0x113 / me=hex / subme=7 / psy=1 / psy_rd=0.40:0.00 / mixed_ref=1 / me_range=16 / chroma_me=1 / trellis=1 / 8x8dct=1 / cqm=0 / deadzone=21,11 / fast_pskip=1 / chroma_qp_offset=-2 / threads=12 / lookahead_threads=2 / sliced_threads=0 / nr=0 / decimate=1 / interlaced=0 / bluray_compat=0 / constrained_intra=0 / bframes=5 / b_pyramid=2 / b_adapt=1 / b_bias=0 / direct=1 / weightb=1 / open_gop=0 / weightp=2 / keyint=250 / keyint_min=23 / scenecut=40 / intra_refresh=0 / rc_lookahead=40 / rc=crf / mbtree=1 / crf=17.0 / qcomp=0.60 / qpmin=0 / qpmax=69 / qpstep=4 / ip_ratio=1.40 / aq=1:0.60
Menus : 4
Codec configuration box : avcC

Audio #1
ID : 2
Format : AAC LC
Format/Info : Advanced Audio Codec Low Complexity
Codec ID : mp4a-40-2
Duration : 2 h 6 min
Duration_LastFrame : -11 ms
Bit rate mode : Constant
Bit rate : 197 kb/s
Channel(s) : 6 channels
Channel layout : C L R Ls Rs LFE
Sampling rate : 48.0 kHz
Frame rate : 46.875 FPS (1024 SPF)
Compression mode : Lossy
Stream size : 178 MiB (3%)
Title : Italiano
Language : Italian
Default : Yes
Alternate group : 1
Menus : 4

Audio #2
ID : 3
Format : AAC LC
Format/Info : Advanced Audio Codec Low Complexity
Codec ID : mp4a-40-2
Duration : 2 h 5 min
Bit rate mode : Constant
Bit rate : 197 kb/s
Channel(s) : 6 channels
Channel layout : C L R Ls Rs LFE
Sampling rate : 48.0 kHz
Frame rate : 46.875 FPS (1024 SPF)
Compression mode : Lossy
Stream size : 178 MiB (3%)
Title : 日本語
Language : Japanese
Default : No
Alternate group : 1
Menus : 4

Menu #1
ID : 4
Codec ID : text
Duration : 2 h 6 min
Language : English
Menu For : 1,2,3
00:00:00.000 : Chapter 1
00:09:34.630 : Chapter 2
00:19:11.120 : Chapter 3
00:28:12.830 : Chapter 4
00:39:16.330 : Chapter 5
00:54:37.120 : Chapter 6
01:01:34.830 : Chapter 7
01:19:54.260 : Chapter 8
01:37:10.800 : Chapter 9
01:54:35.840 : Chapter 10
01:58:26.490 : Chapter 11
02:03:13.280 : Chapter 12

Menu #2
00:00:00.033 : Chapter 1
00:09:34.630 : Chapter 2
00:19:11.120 : Chapter 3
00:28:12.830 : Chapter 4
00:39:16.330 : Chapter 5
00:54:37.120 : Chapter 6
01:01:34.830 : Chapter 7
01:19:54.260 : Chapter 8
01:37:10.800 : Chapter 9
01:54:35.840 : Chapter 10
01:58:26.490 : Chapter 11
02:03:13.280 : Chapter 12







Trackers List

Tracker Name
http://0205.uptm.ch:6969/announce
http://bobbialbano.com:6969/announce
http://explodie.org:6969/announce
http://h4.trakx.nibba.trade:80/announce
http://retracker.sevstar.net:2710/announce
http://share.camoe.cn:8080/announce
http://t.nyaatracker.com/announce
http://t.nyaatracker.com:80/announce
http://t.overflow.biz:6969/announce
http://torrenttracker.nwc.acsalaska.net:6969/announce
http://pow7.com:80/announce
http://tracker.anonwebz.xyz:8080/announce
http://tracker.bt4g.com:2095/announce
http://tracker.files.fm:6969/announce
http://tracker.gbitt.info:80/announce
http://vpn.flying-datacenter.de:6969/announce
http://vps02.net.orel.ru:80/announce
https://1337.abcvg.info:443/announce
https://tracker.imgoingto.icu:443/announce
https://tracker.nitrix.me:443/announce
https://tracker.tamersunion.org:443/announce
https://trakx.herokuapp.com:443/announce
https://w.wwwww.wtf:443/announce
udp://9.rarbg.com:2710/announce
udp://9.rarbg.to:2710/announce
udp://9.rarbg.to:2720/announce
udp://9.rarbg.to:2730/announce
udp://9.rarbg.to:2740/announce
udp://9.rarbg.to:2770/announce
udp://9.rarbg.to:2790/announce
udp://exodus.desync.com:6969/announce
udp://explodie.org:6969/announce
udp://ipv4.tracker.harry.lu:80/announce
udp://open.stealth.si:80/announce
udp://opentor.org:2710/announce
udp://p4p.arenabg.com:1337/announce
udp://retracker.lanta-net.ru:2710/announce
udp://tracker.cyberia.is:6969/announce
udp://tracker.leechers-paradise.org:6969/announce
udp://tracker.moeking.me:6969/announce
udp://tracker.open-internet.nl:6969/announce
udp://tracker.openbittorrent.com:80/announce
udp://tracker.opentrackr.org:1337/announce
udp://tracker.tiny-vps.com:6969/announce
udp://tracker.torrent.eu.org:451/announce
udp://tracker.yoshi210.com:6969/announce

Torrent File Content

  • Sfondamento.Dei.Cieli.Gurren.Lagann.The.Movie.II.The.Lights.In.The.Sky.Are.Stars.1080p.x264.ITA.JAP.MadHex.mp4 (5.2 GB)


Latest Searches