Sfondamento.Dei.Cieli.Gurren.Lagann.The.Movie.I.Childhoods.End.1080p.x264.ITA.JAP.MadHex


    Seeders : 5      Leechers : 0

Downloads : 8
Language : Italian
tag : anime,x264,1080p,ita,jap,madhex,




Description





[INFO]

Genere mecha, drammatico
Serie TV anime
Regia Hiroyuki Imaishi
Composizione serie Kazuki Nakashima
Char. design Atsushi Nishigori
Mecha design Yoh Yoshinari
Dir. artistica Yuka Hirama
Musiche Taku Iwasaki
Studio Gainax


[TRAMA]

In un lontano futuro l'umanità è ridotta a vivere in villaggi sotterranei senza alcun contatto con il mondo in superficie né tanto meno con gli altri villaggi. Simon è un orfano che vive in uno di questi agglomerati, il villaggio di Jiha, ed è uno scavatore, ruolo fondamentale in una società che si sviluppa esclusivamente nel sottosuolo; però non è benvoluto dai suoi pari.
Un giorno Simon trova un oggetto luminescente a forma di trivella; in seguito a questo ritrovamento Kamina, un altro orfano ma di età maggiore, chiede a Simon di entrare a fare parte del suo gruppo, la "Brigata Gurren". Kamina sogna di poter visitare nuovamente la superficie, dato che suo padre l'aveva condotto là ma lui era ancora troppo giovane per poter sperare di sopravvivere. Tuttavia, Kamina, Simon e altri ragazzi vengono scoperti dall'anziano del villaggio: Kamina viene incarcerato e Simon riprende il suo lavoro da scavatore, scoprendo questa volta un piccolo robot, composto principalmente da una faccia enorme alla quale sono agganciate le braccia e le gambe, sepolto nel sottosuolo.
Simon fa evadere Kamina per renderlo partecipe di questa scoperta, ma in quel momento un enorme e mostruoso robot distrugge il soffitto delle caverne e inizia a distruggere il villaggio. Nello stesso momento una ragazza, Yoko, lo segue tentando di danneggiarlo. La ragazza si ritrova a formare un trio con Simon e Kamina, e i tre scoprono che la minuscola trivella è in realtà la chiave per attivare il robot (che verrà soprannominato "Lagann"). Simon riesce istintivamente a pilotarlo e, dopo un'accanita lotta, distrugge il robot nemico, raggiungendo la superficie.
Qui i tre scoprono che il robot era solo uno dei molti "Gunmen", robot pilotati dagli "uomini-bestia", che si trovano in superficie e tormentano i pochi umani che non vivono sottoterra. Simon e Kamina, grazie al Lagann, difendono il villaggio di Yoko dall'assalto di tre Gunmen, e Kamina riesce a far fuggire il pilota di uno di questi e a farlo funzionare al suo posto: lo soprannominerà "Gurren". Dopo una breve permanenza al villaggio, il terzetto decide di partire alla volta del quartier generale degli uomini-bestia, dato che, come ha scoperto l'esperto meccanico Leeron, i Gunmen sono programmati per fare ritorno alla base. Leeron decide quindi di unirsi a Simon, Kamina e Yoko nel pericoloso viaggio; con il passare del tempo molti altri si uniranno al gruppo originario nella lotta contro gli uomini-bestia, il loro sovrano Lord Genome e i suoi sottoposti, tra cui Viral.
Sarà proprio durante uno scontro casuale contro quest'ultimo e il suo Gunmen che Kamina scoprirà che il Lagann si può unire al Gurren, formando così il Gurren Lagann.
La serie si può suddividere nettamente in due parti. Il secondo arco ha luogo sette anni dopo la sconfitta dell'impero degli uomini-bestia da parte della Brigata Gurren: il mondo si sta nuovamente ripopolando e i superstiti della Brigata ne sono diventati i reggenti. Però, quando la popolazione terrestre raggiunge quota 1 000 000 di individui, gli Anti-Spiral, esseri che negano la capacità evoluzionistica degli esseri viventi, attaccano l'umanità. Nello scontro finale contro Anti-Spiral, il mecha denominato in italiano "Sfondamento dei Cieli: Gurren Lagann" viene generato dalla forza di volontà dei restanti membri della brigata, sembrando infine in svantaggio; Simon però trafora con il Lagann il nemico, salvando tutti gli esseri della Spirale.
Nelle ultime scene Simon e Nia si sposano ma poco dopo il bacio quest'ultima svanisce in quanto essere artificiale. Molti anni dopo si rivedono Viral, Yoko e Simon che assistono alla partenza di molti Gunmen diretti all'incontro con gli altri esseri della spirale. Il rappresentante della Terra è Viral, il quale non è cambiato più di tanto (a causa del suo corpo immortale) ma che non si fa mancare il suo caratteraccio.

[SCREENSHOT]



[REPORT]

Code:



Video
ID : 1
Format : AVC
Format/Info : Advanced Video Codec
Format profile : [email protected]
Format settings : CABAC / 6 Ref Frames
Format settings, CABAC : Yes
Format settings, Reference frames : 6 frames
Codec ID : avc1
Codec ID/Info : Advanced Video Coding
Duration : 1 h 52 min
Bit rate : 3 933 kb/s
Width : 1 920 pixels
Height : 1 080 pixels
Display aspect ratio : 16:9
Frame rate mode : Constant
Frame rate : 23.976 (24000/1001) FPS
Color space : YUV
Chroma subsampling : 4:2:0
Bit depth : 8 bits
Scan type : Progressive
Bits/(Pixel*Frame) : 0.079
Stream size : 3.08 GiB (91%)
Title : by stress
Writing library : x264 core 148 r2795 aaa9aa8
Encoding settings : cabac=1 / ref=6 / deblock=1:1:1 / analyse=0x3:0x113 / me=hex / subme=7 / psy=1 / psy_rd=0.40:0.00 / mixed_ref=1 / me_range=16 / chroma_me=1 / trellis=1 / 8x8dct=1 / cqm=0 / deadzone=21,11 / fast_pskip=1 / chroma_qp_offset=-2 / threads=12 / lookahead_threads=2 / sliced_threads=0 / nr=0 / decimate=1 / interlaced=0 / bluray_compat=0 / constrained_intra=0 / bframes=5 / b_pyramid=2 / b_adapt=1 / b_bias=0 / direct=1 / weightb=1 / open_gop=0 / weightp=2 / keyint=250 / keyint_min=23 / scenecut=40 / intra_refresh=0 / rc_lookahead=40 / rc=crf / mbtree=1 / crf=17.0 / qcomp=0.60 / qpmin=0 / qpmax=69 / qpstep=4 / ip_ratio=1.40 / aq=1:0.60
Menus : 4
Codec configuration box : avcC

Audio #1
ID : 2
Format : AAC LC
Format/Info : Advanced Audio Codec Low Complexity
Codec ID : mp4a-40-2
Duration : 1 h 52 min
Bit rate mode : Constant
Bit rate : 197 kb/s
Channel(s) : 6 channels
Channel layout : C L R Ls Rs LFE
Sampling rate : 48.0 kHz
Frame rate : 46.875 FPS (1024 SPF)
Compression mode : Lossy
Stream size : 158 MiB (5%)
Title : Italiano
Language : Italian
Default : Yes
Alternate group : 1
Menus : 4

Audio #2
ID : 3
Format : AAC LC
Format/Info : Advanced Audio Codec Low Complexity
Codec ID : mp4a-40-2
Duration : 1 h 52 min
Bit rate mode : Constant
Bit rate : 197 kb/s
Channel(s) : 6 channels
Channel layout : C L R Ls Rs LFE
Sampling rate : 48.0 kHz
Frame rate : 46.875 FPS (1024 SPF)
Compression mode : Lossy
Stream size : 158 MiB (5%)
Title : 日本語
Language : Japanese
Default : No
Alternate group : 1
Menus : 4

Menu #1
ID : 4
Codec ID : text
Duration : 1 h 52 min
Language : English
Menu For : 1,2,3
00:00:00.000 : Prologue
00:03:02.790 : Chapter 1
00:21:21.960 : Chapter 2
00:25:50.730 : Chapter 3
00:40:44.500 : Chapter 4
00:43:41.010 : Chapter 5
00:52:04.100 : Chapter 6
01:08:29.580 : Chapter 7
01:20:26.380 : Chapter 8
01:38:31.550 : Chapter 9
01:47:02.600 : Ending
01:51:28.820 : Epilogue

Menu #2
00:00:00.330 : Prologue
00:03:02.790 : Chapter 1
00:21:21.960 : Chapter 2
00:25:50.730 : Chapter 3
00:40:44.500 : Chapter 4
00:43:41.010 : Chapter 5
00:52:04.100 : Chapter 6
01:08:29.580 : Chapter 7
01:20:26.380 : Chapter 8
01:38:31.550 : Chapter 9
01:47:02.600 : Ending
01:51:28.820 : Epilogue







Trackers List

Tracker Name
http://0205.uptm.ch:6969/announce
http://bobbialbano.com:6969/announce
http://explodie.org:6969/announce
http://h4.trakx.nibba.trade:80/announce
http://retracker.sevstar.net:2710/announce
http://share.camoe.cn:8080/announce
http://t.nyaatracker.com/announce
http://t.nyaatracker.com:80/announce
http://t.overflow.biz:6969/announce
http://torrenttracker.nwc.acsalaska.net:6969/announce
http://pow7.com:80/announce
http://tracker.anonwebz.xyz:8080/announce
http://tracker.bt4g.com:2095/announce
http://tracker.files.fm:6969/announce
http://tracker.gbitt.info:80/announce
http://vpn.flying-datacenter.de:6969/announce
http://vps02.net.orel.ru:80/announce
https://1337.abcvg.info:443/announce
https://tracker.imgoingto.icu:443/announce
https://tracker.nitrix.me:443/announce
https://tracker.tamersunion.org:443/announce
https://trakx.herokuapp.com:443/announce
https://w.wwwww.wtf:443/announce
udp://9.rarbg.com:2710/announce
udp://9.rarbg.to:2710/announce
udp://9.rarbg.to:2720/announce
udp://9.rarbg.to:2730/announce
udp://9.rarbg.to:2740/announce
udp://9.rarbg.to:2770/announce
udp://9.rarbg.to:2790/announce
udp://exodus.desync.com:6969/announce
udp://explodie.org:6969/announce
udp://ipv4.tracker.harry.lu:80/announce
udp://open.stealth.si:80/announce
udp://opentor.org:2710/announce
udp://p4p.arenabg.com:1337/announce
udp://retracker.lanta-net.ru:2710/announce
udp://tracker.cyberia.is:6969/announce
udp://tracker.leechers-paradise.org:6969/announce
udp://tracker.moeking.me:6969/announce
udp://tracker.open-internet.nl:6969/announce
udp://tracker.openbittorrent.com:80/announce
udp://tracker.opentrackr.org:1337/announce
udp://tracker.tiny-vps.com:6969/announce
udp://tracker.torrent.eu.org:451/announce
udp://tracker.yoshi210.com:6969/announce

Torrent File Content

  • Sfondamento.Dei.Cieli.Gurren.Lagann.The.Movie.I.Childhoods.End.1080p.x264.ITA.JAP.MadHex.mp4 (3.4 GB)


Latest Searches