Seventh Son German (2014)


    Seeders : 0      Leechers : 1

Downloads : 30
Language : German
tag : Seventh,Son,German,Mp4,Movie,




Description



Seventh Son is a 2014 American fantasy film directed by Sergei Bodrov and starring Ben Barnes, Jeff Bridges, Alicia Vikander, and Julianne Moore. It is loosely based on the novel The Spook's Apprentice (titled The Last Apprentice: Revenge of the Witch in the United States) by Joseph Delaney. The story centers on Thomas Ward, a seventh son of a seventh son, and his adventures as the apprentice of the Spook. After having its release date shifted numerous times, the film was released in France on December 17, 2014, and in Canada and the United States on February 6, 2015, by Universal Pictures. Seventh Son received generally negative reviews from film critics and it earned $114 million on a $95 million budget.









Mediainfo Details

Format : MPEG-4
Codec ID : M4V (isom/avc1/mp42)
File size : 1.02 GiB
Duration : 1 h 29 min
Overall bit rate mode : Variable
Overall bit rate : 1 628 kb/s
Movie name : Der siebte Sohn
Performer : 703379_13882657
Encoded date : UTC 2017-07-13 18:19:05
Tagged date : UTC 2017-07-13 18:19:05

Video
ID : 1
Format : AVC
Format/Info : Advanced Video Codec
Format profile : [email protected]
Format settings : CABAC / 2 Ref Frames
Format settings, CABAC : Yes
Format settings, Reference frames : 2 frames
Format settings, GOP : M=3, N=25
Codec ID : avc1
Codec ID/Info : Advanced Video Coding
Duration : 1 h 29 min
Source duration : 1 h 29 min
Bit rate mode : Variable
Bit rate : 1 497 kb/s
Maximum bit rate : 2 250 kb/s
Width : 1 024 pixels
Height : 576 pixels
Display aspect ratio : 16:9
Frame rate mode : Constant
Frame rate : 25.000 FPS
Color space : YUV
Chroma subsampling : 4:2:0
Bit depth : 8 bits
Scan type : Progressive
Bits/(Pixel*Frame) : 0.102
Stream size : 962 MiB (92%)
Source stream size : 962 MiB (92%)
Encoded date : UTC 2017-07-13 18:19:05
Tagged date : UTC 2017-07-13 18:19:05
Codec configuration box : avcC

Audio
ID : 2
Format : AAC LC
Format/Info : Advanced Audio Codec Low Complexity
Codec ID : mp4a-40-2
Duration : 1 h 29 min
Bit rate mode : Variable
Bit rate : 128 kb/s
Maximum bit rate : 135 kb/s
Channel(s) : 2 channels
Channel layout : L R
Sampling rate : 48.0 kHz
Frame rate : 46.875 FPS (1024 SPF)
Compression mode : Lossy
Stream size : 80.6 MiB (8%)
Encoded date : UTC 2017-07-13 18:19:05
Tagged date : UTC 2017-07-13 18:19:05


Trackers List

Tracker Name
udp://tracker.leechers-paradise.org:6969/announce
udp://tracker.internetwarriors.net:1337/announce
udp://tracker.opentrackr.org:1337/announce
udp://tracker.coppersurfer.tk:6969/announce
udp://tracker.pirateparty.gr:6969/announce
udp://9.rarbg.to:2730/announce
udp://9.rarbg.to:2710/announce
udp://bt.xxx-tracker.com:2710/announce
udp://tracker.cyberia.is:6969/announce
udp://retracker.lanta-net.ru:2710/announce
udp://9.rarbg.to:2770/announce
udp://9.rarbg.me:2730/announce
udp://eddie4.nl:6969/announce
udp://tracker.mg64.net:6969/announce
udp://tracker.zer0day.to:1337/announce
udp://coppersurfer.tk:6969/announce

Torrent File Content

Seventh Son German
  • Der siebte Sohn (2014) - HQ - VOX - 13.07.2017.mp4 (1.0 GB)


Latest Searches