Ryu il ragazzo delle caverne-Genshi shonen Ryu (1979) ITA-JAP Ac3 2.0 DVDRip SD H264 [ArMor]


    Seeders : 8      Leechers : 2

Downloads : 9
Language : Italian




Description





Autore Shōtarō Ishinomori manga
Regia Takeshi Tamiya, Masayuki Akehi
Soggetto Toyohiro Andou sceneggiatura, Hirokazu Fuse sceneggiatura, Mayumi Norimasa sceneggiatura
Sceneggiatura Tadashi Kondo
Char. design Kazuo Komatsubara
Dir. artistica Mataji Urata
Musiche Takeo Watanabe
Studio Toei Animation
Rete TBS
1ª TV 30 ottobre 1971 – 25 marzo 1972
Episodi 22 (completa)
Durata 30 min
Rete it. Italia 1, Man-ga
1ª TV it. 1979
Episodi it. 22 (completa)


Plot: Ambientato in una non meglio definibile era preistorica in cui gli esseri umani convivono con i dinosauri, Ryu è un bambino dalla pelle chiara, perciò completamente diverso dal resto della sua gente che è invece di pelle scura, e per tale ragione viene discriminato ed abbandonato a se stesso. Il piccolo viene trovato da una amorevole scimmia di nome Kitty e cresciuto dall'animale come se fosse un proprio figlio. Divenuto un giovane adulto, non può fare nulla per difendere la propria madre adottiva attaccata ed uccisa dal terribile tirannosauro con un occhio solo chiamato e conosciuto da tutti col nome di Tirano. Per sconfiggerlo, vendicare Kitty e ricongiungersi finalmente con la propria vera madre umana, Ryu decide di intraprendere un lungo e difficile cammino, al quale si unirà presto anche la bella Ran, la quale a sua volta è alla ricerca del fratellino Don, separato da lei in tenera età.

Ryu was rescued by a monkey when his tribe left him in the woods to die. In the animated series he is sacrificed to Chirano - Tyrannosaurus Rex - at the top of a cliff heap. In the prehistoric jungle they are exposed to multiple threats of several monsters, and the one-eyed dinosaur.










General
Unique ID : 276066703067404469488499850377964752572 (0xCFB0835487B66EE8262EB849B92F0EBC)
Complete name : Ryu il ragazzo delle caverne (1979) ITA-JAP Ac3 2.0 DVDRip SD H264 [ArMor]
Format : Matroska
Format version : Version 4
File size : 1.69 GiB
Duration : 2 h 8 min
Overall bit rate : 1 890 kb/s
Encoded date : UTC 2020-07-27 00:08:49
Writing application : HandBrake 1.3.3 2020061300
Writing library : Lavf58.29.100
ErrorDetectionType : Per level 1

Video
ID : 1
Format : AVC
Format/Info : Advanced Video Codec
Format profile : [email protected]
Format settings : CABAC / 4 Ref Frames
Format settings, CABAC : Yes
Format settings, Reference frames : 4 frames
Codec ID : V_MPEG4/ISO/AVC
Duration : 2 h 8 min
Bit rate : 1 500 kb/s
Width : 720 pixels
Height : 540 pixels
Display aspect ratio : 4:3
Frame rate mode : Constant
Frame rate : 25.000 FPS
Color space : YUV
Chroma subsampling : 4:2:0
Bit depth : 8 bits
Scan type : Progressive
Bits/(Pixel*Frame) : 0.154
Stream size : 1.32 GiB (78%)
Writing library : x264 core 157 r2935 545de2f
Encoding settings : cabac=1 / ref=2 / deblock=1:0:0 / analyse=0x1:0x111 / me=hex / subme=6 / psy=1 / psy_rd=1.00:0.00 / mixed_ref=1 / me_range=16 / chroma_me=1 / trellis=1 / 8x8dct=0 / cqm=0 / deadzone=21,11 / fast_pskip=1 / chroma_qp_offset=-2 / threads=17 / lookahead_threads=2 / sliced_threads=0 / nr=0 / decimate=1 / interlaced=0 / bluray_compat=0 / constrained_intra=0 / bframes=3 / b_pyramid=2 / b_adapt=1 / b_bias=0 / direct=1 / weightb=1 / open_gop=0 / weightp=1 / keyint=250 / keyint_min=25 / scenecut=40 / intra_refresh=0 / rc_lookahead=30 / rc=abr / mbtree=1 / bitrate=1500 / ratetol=1.0 / qcomp=0.60 / qpmin=0 / qpmax=69 / qpstep=4 / vbv_maxrate=50000 / vbv_bufsize=62500 / nal_hrd=none / filler=0 / ip_ratio=1.40 / aq=1:1.00
Default : Yes
Forced : No
Color range : Limited
Color primaries : BT.601 PAL
Transfer characteristics : BT.470 System B/G
Matrix coefficients : BT.470 System B/G

Audio #1
ID : 2
Format : AC-3
Format/Info : Audio Coding 3
Commercial name : Dolby Digital
Codec ID : A_AC3
Duration : 2 h 8 min
Bit rate mode : Constant
Bit rate : 192 kb/s
Channel(s) : 2 channels
Channel layout : L R
Sampling rate : 48.0 kHz
Frame rate : 31.250 FPS (1536 SPF)
Compression mode : Lossy
Stream size : 176 MiB (10%)
Title : Stereo
Language : Italian
Service kind : Complete Main
Default : Yes
Forced : No

Audio #2
ID : 3
Format : AC-3
Format/Info : Audio Coding 3
Commercial name : Dolby Digital
Codec ID : A_AC3
Duration : 2 h 8 min
Bit rate mode : Constant
Bit rate : 192 kb/s
Channel(s) : 2 channels
Channel layout : L R
Sampling rate : 48.0 kHz
Frame rate : 31.250 FPS (1536 SPF)
Compression mode : Lossy
Stream size : 176 MiB (10%)
Title : Stereo
Language : Japanese
Service kind : Complete Main
Default : No
Forced : No

Menu
00:00:00.000 : :Chapter 1
00:01:21.120 : :Chapter 2
00:24:01.920 : :Chapter 3
00:24:33.120 : :Chapter 4
00:25:39.600 : :Chapter 5
00:27:00.224 : :Chapter 6
00:49:42.464 : :Chapter 7
00:50:14.144 : :Chapter 8
00:51:19.824 : :Chapter 9
00:52:40.464 : :Chapter 10
01:15:23.184 : :Chapter 11
01:15:53.424 : :Chapter 12
01:17:00.064 : :Chapter 13
01:18:20.704 : :Chapter 14
01:41:02.944 : :Chapter 15
01:41:33.664 : :Chapter 16
01:42:40.288 : :Chapter 17
01:44:01.888 : :Chapter 18
02:06:42.688 : :Chapter 19
02:07:14.368 : :Chapter 20



Trackers List

Tracker Name
udp://tracker.coppersurfer.tk:6969/announce
udp://tracker.leechers-paradise.org:6969/announce
udp://tracker.pirateparty.gr:6969/announce
udp://exodus.desync.com:6969/announce
udp://tracker.opentrackr.org:1337/announce
udp://tracker.internetwarriors.net:1337/announce
udp://tracker.cyberia.is:6969/announce
udp://open.demonii.si:1337/announce
udp://open.stealth.si:80/announce
udp://tracker.tiny-vps.com:6969/announce
udp://tracker.iamhansen.xyz:2000/announce
udp://explodie.org:6969/announce
udp://denis.stalker.upeer.me:6969/announce
udp://ipv4.tracker.harry.lu:80/announce

Torrent File Content

Ryu il ragazzo delle caverne-Genshi shonen Ryu (1979) ITA-JAP Ac3 2.0 DVDRip SD H264 [ArMor]
  • 51m+R8eYpPL.jpg (47.1 KB)
  • Ryu il ragazzo delle caverne 1 (1979) ITA-JAP Ac3 2.0 DVDRip SD H264 [ArMor]
    • Ryu D01_track1_ita.idx (48.1 KB)
    • Ryu D01_track2_ita.sub (4.2 MB)
    • Ryu D01_track3_und.idx (2.5 KB)
    • Ryu D01_track4_und.sub (202.0 KB)
    • Ryu il ragazzo delle caverne 1.mkv (1.7 GB)
    Ryu il ragazzo delle caverne 2 (1979) ITA-JAP Ac3 2.0 DVDRip SD H264 [ArMor]
    • Ryu D02_track1_ita.idx (65.1 KB)
    • Ryu D02_track2_ita.sub (6.0 MB)
    • Ryu D02_track3_und.idx (2.3 KB)
    • Ryu D02_track4_und.sub (182.0 KB)
    • Ryu il ragazzo delle caverne 2.mkv (2.0 GB)
    Ryu il ragazzo delle caverne 3 (1979) ITA-JAP Ac3 2.0 DVDRip SD H264 [ArMor]
    • Ryu D03_track1_ita.idx (45.0 KB)
    • Ryu D03_track2_ita.sub (4.2 MB)
    • Ryu D03_track3_und.idx (3.5 KB)
    • Ryu D03_track4_und.sub (316.0 KB)
    • Ryu il ragazzo delle caverne 3.mkv (1.7 GB)
    Ryu il ragazzo delle caverne 4 (1979) ITA-JAP Ac3 2.0 DVDRip SD H264 [ArMor]
    • Ryu D04_track1_ita.idx (49.0 KB)
    • Ryu D04_track2_ita.sub (4.3 MB)
    • Ryu D04_track3_und.idx (2.0 KB)
    • Ryu D04_track4_und.sub (152.0 KB)
    • Ryu il ragazzo delle caverne 4.mkv (2.0 GB)


Latest Searches