Richard Jewell (2019) 2160p HDR 5.1 x265 10bit Phun Psyz


    Seeders : 22      Leechers : 4

Downloads : 88
Language : English
tag : Richard Jewell,2019,2160p,HDR,x265,Phun Psyz,




Description

www.imdb.com/title/tt3513548/

American security guard Richard Jewell saves many lives from an exploding bomb at the 1996 Olympics, but is vilified by journalists and the press who falsely reported that he was a terrorist.

Source: DDR (Web)



Format : Matroska
Format version : Version 4
File size : 3.33 GiB
Duration : 2 h 10 min
Overall bit rate : 3 640 kb/s
Writing application : HandBrake 1.2.0 2018121700
Writing library : Lavf58.20.100

Video
ID : 1
Format : HEVC
Format/Info : High Efficiency Video Coding
Format profile : Main [email protected]@High
Codec ID : V_MPEGH/ISO/HEVC
Duration : 2 h 10 min
Bit rate : 3 248 kb/s
Width : 3 840 pixels
Height : 1 608 pixels
Display aspect ratio : 2.40:1
Frame rate mode : Constant
Frame rate : 23.976 (24000/1001) FPS
Color space : YUV
Chroma subsampling : 4:2:0
Bit depth : 10 bits
Bits/(Pixel*Frame) : 0.022
Stream size : 2.97 GiB (89%)
Writing library : x265 2.9:[Windows][GCC 7.1.0][64 bit] 10bit
Color range : Full
Color primaries : BT.2020
Transfer characteristics : PQ
Matrix coefficients : BT.2020 non-constant

Audio
ID : 2
Format : AC-3
Format/Info : Audio Coding 3
Commercial name : Dolby Digital
Codec ID : A_AC3
Duration : 2 h 10 min
Bit rate mode : Constant
Bit rate : 320 kb/s
Channel(s) : 6 channels
Channel layout : L R C LFE Ls Rs
Sampling rate : 48.0 kHz
Frame rate : 31.250 FPS (1536 SPF)
Compression mode : Lossy
Delay relative to video : -5 ms
Stream size : 300 MiB (9%)
Title : Surround
Language : English

Text
Language : French
Language : French
Default : No
Forced : No


Trackers List

Tracker Name
udp://tracker.tiny-vps.com:6969/announce
udp://open.stealth.si:80/announce
udp://p4p.arenabg.com:1337/announce
udp://tracker.coppersurfer.tk:6969/announce
udp://tracker.uw0.xyz:6969/announce
udp://tracker.torrent.eu.org:451/announce
udp://explodie.org:6969/announce
udp://ipv4.tracker.harry.lu:80/announce
udp://retracker.lanta-net.ru:2710/announce
udp://exodus.desync.com:6969/announce
udp://tracker.iamhansen.xyz:2000/announce
udp://opentor.org:2710/announce
udp://tracker.moeking.me:6969/announce

Torrent File Content

  • Richard Jewell (2019) 2160p HDR 5.1 x265 10bit Phun Psyz.mkv (3.3 GB)


Latest Searches