Reba TV Series. Season's 1&2. 45 Episodes (2001-2002) MP4. DvD Rip


    Seeders : 2      Leechers : 5

Downloads : 16
Language : English
tag : Reba,tv,series,




Description





A showcase for the acting talents of country music star Reba McEntire, this sitcom revolves around recent divorcee Reba Hart; her ex-husband, Brock, and his new wife, Barbra Jean; and their children: newlywed and new mom Cheyenne, rebellious teen Kyra and young Jake. The temperamental matriarch struggles with dealing everyone in her home.

General
Complete name                            : \TV Series\REBA Season 1 & 2 (2001-2002)  mp4
Format                                   : MPEG-4
Format profile                           : Base Media / Version 2
Codec ID                                 : mp42 (mp42/isom/avc1)
File size                                : 217 MiB
Duration                                 : 21 min 39 s
Overall bit rate mode                    : Variable
Overall bit rate                         : 1 404 kb/s
Movie name                               : REBA_S1_D1_B.Title2
Album                                    : REBA_S1_D1_B
Encoded date                             : UTC 2019-01-25 05:08:23
Tagged date                              : UTC 2019-01-25 05:09:56
Writing application                      : DVDFab 11.0.0.8
Cover                                    : Yes

Video
ID                                       : 1
Format                                   : AVC
Format/Info                              : Advanced Video Codec
Format profile                           : [email protected]
Format settings                          : CABAC / 1 Ref Frames
Format settings, CABAC                   : Yes
Format settings, Reference frames        : 1 frame
Format settings, GOP                     : M=1, N=24
Codec ID                                 : avc1
Codec ID/Info                            : Advanced Video Coding
Duration                                 : 21 min 39 s
Bit rate mode                            : Constant
Bit rate                                 : 1 214 kb/s
Width                                    : 640 pixels
Height                                   : 480 pixels
Display aspect ratio                     : 4:3
Frame rate mode                          : Constant
Frame rate                               : 23.976 (24000/1001) FPS
Color space                              : YUV
Chroma subsampling                       : 4:2:0
Bit depth                                : 8 bits
Scan type                                : Progressive
Bits/(Pixel*Frame)                       : 0.165
Stream size                              : 186 MiB (85%)
Encoded date                             : UTC 2019-01-25 05:08:23
Tagged date                              : UTC 2019-01-25 05:09:56
Color range                              : Limited
Color primaries                          : BT.601 NTSC
colour_primaries_Original                : BT.709
Transfer characteristics                 : BT.709
Matrix coefficients                      : BT.601
matrix_coefficients_Original             : BT.709
Menus                                    : 4
Codec configuration box                  : avcC

Audio
ID                                       : 2
Format                                   : AAC LC
Format/Info                              : Advanced Audio Codec Low Complexity
Codec ID                                 : mp4a-40-2
Duration                                 : 21 min 38 s
Bit rate mode                            : Variable
Bit rate                                 : 192 kb/s
Maximum bit rate                         : 194 kb/s
Channel(s)                               : 2 channels
Channel layout                           : L R
Sampling rate                            : 48.0 kHz
Frame rate                               : 46.875 FPS (1024 SPF)
Compression mode                         : Lossy
Stream size                              : 29.7 MiB (14%)
Title                                    : English (aac 2.0)
Language                                 : English
Default                                  : Yes
Alternate group                          : 1
Encoded date                             : UTC 2019-01-25 05:08:23
Tagged date                              : UTC 2019-01-25 05:09:54

Text
ID                                       : 3
Format                                   : VobSub
Codec ID                                 : mp4s-E0
Codec ID/Info                            : The same subtitle format used on DVDs
Duration                                 : 20 min 57 s
Bit rate mode                            : Variable
Bit rate                                 : 4 621 b/s
Maximum bit rate                         : 3 981 Mb/s
Stream size                              : 709 KiB (0%)
Language                                 : English
Default                                  : Yes
Forced                                   : No
Alternate group                          : 2
Encoded date                             : UTC 2019-01-25 05:08:23
Tagged date                              : UTC 2019-01-25 05:09:52

Menu
ID                                       : 4
Codec ID                                 : text
Duration                                 : 21 min 39 s
Encoded date                             : UTC 2019-01-25 05:08:23
Tagged date                              : UTC 2019-01-25 05:09:56
Bit rate mode                            : CBR
Menu For                                 : 1
00:00:00.000                             : Chapter 1
00:02:11.965                             : Chapter 2
00:13:22.384                             : Chapter 3
00:20:04.536                             : Chapter 4
00:20:57.214                             : Chapter 5
00:21:37.421                             : Chapter 6
Bit rate mode                            : Constant


Trackers List

Tracker Name
udp://tracker.opentrackr.org:1337/announce
udp://9.rarbg.to:2710/announce
udp://9.rarbg.me:2710/announce
udp://p4p.arenabg.com:1337/announce
udp://exodus.desync.com:6969/announce
udp://tracker.cyberia.is:6969/announce
udp://retracker.lanta-net.ru:2710/announce
udp://open.stealth.si:80/announce
udp://tracker.tiny-vps.com:6969/announce
udp://tracker.torrent.eu.org:451/announce
udp://tracker.moeking.me:6969/announce
udp://bt2.archive.org:6969/announce
udp://bt1.archive.org:6969/announce
udp://ipv4.tracker.harry.lu:80/announce
udp://tracker.uw0.xyz:6969/announce

Torrent File Content

Reba TV Series. Season 1-2. 45 Episodes (2001-2002) Season 1
  • S1-E1.mp4 (881.9 MB)
  • S1-E10.mp4 (220.8 MB)
  • S1-E11.mp4 (220.8 MB)
  • S1-E12.mp4 (228.3 MB)
  • S1-E13.mp4 (217.3 MB)
  • S1-E14.mp4 (220.9 MB)
  • S1-E15.mp4 (220.7 MB)
  • S1-E16.mp4 (218.0 MB)
  • S1-E17.mp4 (218.8 MB)
  • S1-E18.mp4 (220.9 MB)
  • S1-E19.mp4 (211.5 MB)
  • S1-E2.mp4 (220.4 MB)
  • S1-E20.mp4 (220.9 MB)
  • S1-E3.mp4 (221.5 MB)
  • S1-E5.mp4 (221.0 MB)
  • S1-E6.mp4 (217.5 MB)
  • S1-E7.mp4 (221.0 MB)
  • S1-E8.mp4 (221.1 MB)
  • S1-E9.mp4 (221.1 MB)
Season 2
  • S2-E1.mp4 (408.2 MB)
  • S2-E10.mp4 (211.9 MB)
  • S2-E11.mp4 (212.1 MB)
  • S2-E12.mp4 (219.5 MB)
  • S2-E13.mp4 (217.6 MB)
  • S2-E14.mp4 (220.6 MB)
  • S2-E15.mp4 (212.5 MB)
  • S2-E16.mp4 (220.8 MB)
  • S2-E17.mp4 (220.8 MB)
  • S2-E18.mp4 (208.1 MB)
  • S2-E19.mp4 (213.8 MB)
  • S2-E2.mp4 (203.6 MB)
  • S2-E20.mp4 (212.2 MB)
  • S2-E21.mp4 (220.9 MB)
  • S2-E22.mp4 (220.8 MB)
  • S2-E23.mp4 (220.2 MB)
  • S2-E24.mp4 (318.7 MB)
  • S2-E25.mp4 (338.0 MB)
  • S2-E3.mp4 (394.1 MB)
  • S2-E4 .mp4 (222.7 MB)
  • S2-E4.mp4 (220.3 MB)
  • S2-E5.mp4 (215.0 MB)
  • S2-E6.mp4 (214.4 MB)
  • S2-E7.mp4 (219.7 MB)
  • S2-E8.mp4 (216.8 MB)
  • S2-E9.mp4 (220.8 MB)


Latest Searches