Piranha 3D (2010) (1080p BDRip x265 10bit DTS-HD MA 5.1 - xtrem3x) [TAoE].mkv


    Seeders : 1      Leechers : 3

Movie : Piranha 3D
Downloads : 92
Language : English
tag : HEVC,MKV,
Genres : Horror,
Release date : 2010
Summary : Each year the population of sleepy Lake Victoria, Arizona explodes from 5,000 to 50,000 residents for the annual Spring Break celebration. But then, an earthquake opens an underwater chasm, releasing an enormous swarm of ancient Piranha that have been dormant for thousands of years, now with a taste for human flesh. This year, there's something more to worry about than the usual hangovers and complaints from locals, a new type of terror is about to be cut loose on Lake Victoria.




Description






Piranha 3D (2010) IMDB

Encoders note


No it's not in 3D, that's just the title










Media Information



General
Unique ID : 256504854520080241680168607142823203011 (0xC0F909BBAF493950E49964E3DCD210C3)
Complete name : Piranha 3D (2010) (1080p BDRip x265 10bit DTS-HD MA 5.1 - xtrem3x) [TAoE].mkv
Format : Matroska
Format version : Version 4
File size : 7.08 GiB
Duration : 1 h 28 min
Overall bit rate mode : Variable
Overall bit rate : 11.5 Mb/s
Writing application : Lavf58.29.100
Writing library : Lavf58.29.100
ErrorDetectionType : Per level 1

Video
ID : 1
Format : HEVC
Format/Info : High Efficiency Video Coding
Format profile : Main [email protected]@Main
Codec ID : V_MPEGH/ISO/HEVC
Duration : 1 h 28 min
Bit rate : 8 776 kb/s
Width : 1 920 pixels
Height : 800 pixels
Display aspect ratio : 2.40:1
Frame rate mode : Constant
Frame rate : 23.976 (24000/1001) FPS
Color space : YUV
Chroma subsampling : 4:2:0
Bit depth : 10 bits
Bits/(Pixel*Frame) : 0.238
Stream size : 5.42 GiB (76%)
Title : Encoded by xtrem3x for TAoE using Shinguru V2.1
Writing library : x265 3.3+29-1e3dbf09ee4f:[Windows][GCC 9.3.1][64 bit] 10bit
Encoding settings : cpuid=1111039 / frame-threads=3 / numa-pools=8 / wpp / no-pmode / no-pme / no-psnr / no-ssim / log-level=2 / input-csp=1 / input-res=1920x800 / interlace=0 / total-frames=0 / level-idc=0 / high-tier=1 / uhd-bd=0 / ref=4 / no-allow-non-conformance / no-repeat-headers / annexb / no-aud / no-hrd / info / hash=0 / no-temporal-layers / open-gop / min-keyint=23 / keyint=250 / gop-lookahead=0 / bframes=8 / b-adapt=2 / b-pyramid / bframe-bias=0 / rc-lookahead=80 / lookahead-slices=4 / scenecut=40 / hist-scenecut=0 / radl=0 / no-splice / no-intra-refresh / ctu=64 / min-cu-size=8 / no-rect / no-amp / max-tu-size=32 / tu-inter-depth=1 / tu-intra-depth=1 / limit-tu=0 / rdoq-level=2 / dynamic-rd=0.00 / no-ssim-rd / signhide / no-tskip / nr-intra=0 / nr-inter=0 / no-constrained-intra / no-strong-intra-smoothing / max-merge=3 / limit-refs=3 / limit-modes / me=3 / subme=5 / merange=57 / temporal-mvp / no-frame-dup / no-hme / weightp / no-weightb / no-analyze-src-pics / deblock=0:0 / sao / no-sao-non-deblock / rd=4 / selective-sao=4 / no-early-skip / rskip / no-fast-intra / no-tskip-fast / no-cu-lossless / no-b-intra / no-splitrd-skip / rdpenalty=0 / psy-rd=1.30 / psy-rdoq=2.00 / no-rd-refine / no-lossless / cbqpoffs=0 / crqpoffs=0 / rc=crf / crf=18.0 / qcomp=0.60 / qpstep=4 / stats-write=0 / stats-read=0 / ipratio=1.40 / pbratio=1.30 / aq-mode=4 / aq-strength=1.10 / cutree / zone-count=0 / no-strict-cbr / qg-size=32 / no-rc-grain / qpmax=69 / qpmin=0 / no-const-vbv / sar=1 / overscan=0 / videoformat=5 / range=0 / colorprim=2 / transfer=2 / colormatrix=2 / chromaloc=0 / display-window=0 / cll=0,0 / min-luma=0 / max-luma=1023 / log2-max-poc-lsb=8 / vui-timing-info / vui-hrd-info / slices=1 / no-opt-qp-pps / no-opt-ref-list-length-pps / no-multi-pass-opt-rps / scenecut-bias=0.05 / hist-threshold=0.01 / no-opt-cu-delta-qp / no-aq-motion / no-hdr10 / no-hdr10-opt / no-dhdr10-opt / no-idr-recovery-sei / analysis-reuse-level=0 / analysis-save-reuse-level=0 / analysis-load-reuse-level=0 / scale-factor=0 / refine-intra=0 / refine-inter=0 / refine-mv=1 / refine-ctu-distortion=0 / no-limit-sao / ctu-info=0 / no-lowpass-dct / refine-analysis-type=0 / copy-pic=1 / max-ausize-factor=1.0 / no-dynamic-refine / no-single-sei / no-hevc-aq / no-svt / no-field / qp-adaptation-range=1.00 / no-scenecut-aware-qpconformance-window-offsets / right=0 / bottom=0 / decoder-max-rate=0
Language : English
Default : Yes
Forced : No
Color range : Limited

Audio #1
ID : 2
Format : DTS XLL
Format/Info : Digital Theater Systems
Commercial name : DTS-HD Master Audio
Codec ID : A_DTS
Duration : 1 h 28 min
Bit rate mode : Variable
Bit rate : 2 348 kb/s
Channel(s) : 6 channels
Channel layout : C L R Ls Rs LFE
Sampling rate : 48.0 kHz
Frame rate : 93.750 FPS (512 SPF)
Bit depth : 16 bits
Compression mode : Lossless
Stream size : 1.45 GiB (20%)
Language : English
Default : Yes
Forced : No

Audio #2
ID : 3
Format : AC-3
Format/Info : Audio Coding 3
Commercial name : Dolby Digital
Codec ID : A_AC3
Duration : 1 h 28 min
Bit rate mode : Constant
Bit rate : 224 kb/s
Channel(s) : 2 channels
Channel layout : L R
Sampling rate : 48.0 kHz
Frame rate : 31.250 FPS (1536 SPF)
Bit depth : 16 bits
Compression mode : Lossy
Stream size : 142 MiB (2%)
Title : Commentary by producer/director Alexandre Aja, producer Gregory Levasseur, and producer Alix Taylor
Language : English
Service kind : Complete Main
Default : No
Forced : No

Text #1
ID : 4
Format : PGS
Codec ID : S_HDMV/PGS
Codec ID/Info : Picture based subtitle format used on BDs/HD-DVDs
Duration : 1 h 21 min
Bit rate : 48.9 kb/s
Count of elements : 2180
Stream size : 28.6 MiB (0%)
Title : SDH
Language : English
Default : No
Forced : No

Text #2
ID : 5
Format : PGS
Codec ID : S_HDMV/PGS
Codec ID/Info : Picture based subtitle format used on BDs/HD-DVDs
Duration : 1 h 21 min
Bit rate : 26.1 kb/s
Count of elements : 2106
Stream size : 15.3 MiB (0%)
Title : Mandarin Traditional
Language : Chinese
Default : No
Forced : No

Text #3
ID : 6
Format : PGS
Codec ID : S_HDMV/PGS
Codec ID/Info : Picture based subtitle format used on BDs/HD-DVDs
Duration : 1 h 26 min
Bit rate : 48.9 kb/s
Count of elements : 3484
Stream size : 30.4 MiB (0%)
Title : Commentary by producer/director Alexandre Aja, producer Gregory Levasseur, and producer Alix Taylor (Mandarin Traditional)
Language : Chinese
Default : No
Forced : No

Menu
00:00:00.000 : :Chapter 1
00:07:22.817 : :Chapter 2
00:13:04.659 : :Chapter 3
00:20:40.865 : :Chapter 4
00:30:20.068 : :Chapter 5
00:38:55.792 : :Chapter 6
00:45:19.342 : :Chapter 7
00:51:20.786 : :Chapter 8
01:01:22.095 : :Chapter 9
01:08:05.873 : :Chapter 10
01:16:33.464 : :Chapter 11
01:22:11.718 : :Chapter 12


Source Information



General
Unique ID : 73675674807075271348392666823590817996 (0x376D6B385656312809826C5B818630CC)
Complete name : Piranha.3D.2010.1080p.BluRay.REMUX.AVC.DTS-HD.MA.5.1-AC.mkv
Format : Matroska
Format version : Version 4
File size : 16.4 GiB
Duration : 1 h 28 min
Overall bit rate mode : Variable
Overall bit rate : 26.6 Mb/s
Encoded date : UTC 2019-01-15 13:20:51
Writing application : mkvmerge v30.1.0 ('Forever And More') 64-bit
Writing library : libebml v1.3.6 + libmatroska v1.4.9

Video
ID : 1
Format : AVC
Format/Info : Advanced Video Codec
Format profile : [email protected]
Format settings : CABAC / 2 Ref Frames
Format settings, CABAC : Yes
Format settings, Reference frames : 2 frames
Format settings, GOP : M=1, N=10
Codec ID : V_MPEG4/ISO/AVC
Duration : 1 h 28 min
Bit rate mode : Variable
Bit rate : 23.9 Mb/s
Width : 1 920 pixels
Height : 1 080 pixels
Display aspect ratio : 16:9
Frame rate mode : Constant
Frame rate : 23.976 (24000/1001) FPS
Color space : YUV
Chroma subsampling : 4:2:0
Bit depth : 8 bits
Scan type : Progressive
Bits/(Pixel*Frame) : 0.480
Stream size : 14.7 GiB (90%)
Title : MPEG-4 AVC Video / 23861 kbps / 1080p / 23.976 fps / 16:9 / High Profile 4.1
Language : English
Default : Yes
Forced : No

Audio #1
ID : 2
Format : DTS XLL
Format/Info : Digital Theater Systems
Commercial name : DTS-HD Master Audio
Codec ID : A_DTS
Duration : 1 h 28 min
Bit rate mode : Variable
Bit rate : 2 348 kb/s
Channel(s) : 6 channels
Channel layout : C L R Ls Rs LFE
Sampling rate : 48.0 kHz
Frame rate : 93.750 FPS (512 SPF)
Bit depth : 16 bits
Compression mode : Lossless
Stream size : 1.45 GiB (9%)
Title : DTS-HD Master Audio / 5.1 / 48 kHz / 2348 kbps / 16-bit
Language : English
Default : Yes
Forced : No

Audio #2
ID : 3
Format : AC-3
Format/Info : Audio Coding 3
Commercial name : Dolby Digital
Codec ID : A_AC3
Duration : 1 h 28 min
Bit rate mode : Constant
Bit rate : 224 kb/s
Channel(s) : 2 channels
Channel layout : L R
Sampling rate : 48.0 kHz
Frame rate : 31.250 FPS (1536 SPF)
Bit depth : 16 bits
Compression mode : Lossy
Stream size : 142 MiB (1%)
Title : Commentary by producer/director Alexandre Aja, producer Gregory Levasseur, and producer Alix Taylor
Language : English
Service kind : Complete Main
Default : No
Forced : No

Text #1
ID : 4
Format : PGS
Codec ID : S_HDMV/PGS
Codec ID/Info : Picture based subtitle format used on BDs/HD-DVDs
Duration : 1 h 21 min
Bit rate : 48.9 kb/s
Count of elements : 2180
Stream size : 28.6 MiB (0%)
Title : SDH
Language : English
Default : No
Forced : No

Text #2
ID : 5
Format : PGS
Codec ID : S_HDMV/PGS
Codec ID/Info : Picture based subtitle format used on BDs/HD-DVDs
Duration : 1 h 21 min
Bit rate : 26.1 kb/s
Count of elements : 2106
Stream size : 15.3 MiB (0%)
Title : Mandarin Traditional
Language : Chinese
Default : No
Forced : No

Text #3
ID : 6
Format : PGS
Codec ID : S_HDMV/PGS
Codec ID/Info : Picture based subtitle format used on BDs/HD-DVDs
Duration : 1 h 26 min
Bit rate : 48.9 kb/s
Count of elements : 3484
Stream size : 30.4 MiB (0%)
Title : Commentary by producer/director Alexandre Aja, producer Gregory Levasseur, and producer Alix Taylor (Mandarin Traditional)
Language : Chinese
Default : No
Forced : No

Menu
00:00:00.000 : en:Chapter 1
00:07:22.817 : en:Chapter 2
00:13:04.659 : en:Chapter 3
00:20:40.865 : en:Chapter 4
00:30:20.068 : en:Chapter 5
00:38:55.792 : en:Chapter 6
00:45:19.342 : en:Chapter 7
00:51:20.786 : en:Chapter 8
01:01:22.095 : en:Chapter 9
01:08:05.873 : en:Chapter 10
01:16:33.464 : en:Chapter 11
01:22:11.718 : en:Chapter 12


Trackers List

Tracker Name
udp://tracker.coppersurfer.tk:6969/announce
udp://tracker.internetwarriors.net:1337/announce
http://tracker.opentrackr.org:1337/announce
udp://denis.stalker.upeer.me:6969/announce
udp://tracker.internetwarriors.net:1337
udp://9.rarbg.me:2720/announce
udp://explodie.org:6969/announce
udp://tracker.cyberia.is:6969/announce
udp://thetracker.org/announce
udp://open.demonii.si:1337/announce

Torrent File Content

  • Piranha 3D (2010) (1080p BDRip x265 10bit DTS-HD MA 5.1 - xtrem3x) [TAoE].mkv (7.1 GB)

Related torrents

Torrent Name Added Size Seed Leech
2 years ago 754.9 MB 23 4
4 years ago 551.7 MB 22 4
4 years ago 1.3 GB 19 4
1 year ago 1.8 GB 15 31
8 years ago 1.4 GB 14 3


Latest Searches