Miyo un amore felino- (2020) ITA-JAP Ac3 5.1 WEBRip 1080p H264 [ArMor]


    Seeders : 11      Leechers : 6

Downloads : 41
Language : Italian




Description





Titolo originale 泣きたい私は猫をかぶる Nakitai watashi wa neko o kaburu
Lingua originale giapponese
Paese di produzione Giappone
Anno 2020
Durata 104 min
Genere animazione, commedia, fantastico, sentimentale
Regia Jun'ichi Satō, Tomotaka Shibayama


Plot: Miyo Sasaki è una ragazza innamorata dell'affascinante Kento Hinode, suo compagno di classe. Per caso, la giovane trova una misteriosa maschera, che le permette di diventare un gatto; Miyo decide così di sfruttare la situazione a suo vantaggio e di sfruttare la sua forma felina per avvicinarsi all'amato. Il piano funziona, e Kento soprannomina la piccola gattina Tarō, ma a un certo punto la ragazza non riesce più a tornare umana.

Miyo Sasaki is in love with her classmate Kento Hinode and tries repeatedly to get Kento's attention by transforming into a cat, but at some point, the boundary between herself and the cat becomes ambiguous.










General
Unique ID                                : 182167178945437075886827094805561890188 (0x890C1F5AF387A57DB928C1543B0E558C)
Complete name                            : Miyo un amore felino- (2020) ITA-JAP Ac3 5.1 WEBRip 1080p H264 [ArMor].mkv
Format                                   : Matroska
Format version                           : Version 4
File size                                : 3.52 GiB
Duration                                 : 1 h 45 min
Overall bit rate                         : 4 782 kb/s
Encoded date                             : UTC 2020-07-28 14:20:38
Writing application                      : mkvmerge v15.0.0 ('Duel with the Devil') 64-bit
Writing library                          : libebml v1.3.5 + libmatroska v1.4.5 / Lavf58.29.100

Video
ID                                       : 1
Format                                   : AVC
Format/Info                              : Advanced Video Codec
Format profile                           : [email protected]
Format settings                          : CABAC / 4 Ref Frames
Format settings, CABAC                   : Yes
Format settings, Reference frames        : 4 frames
Codec ID                                 : V_MPEG4/ISO/AVC
Duration                                 : 1 h 44 min
Bit rate                                 : 4 000 kb/s
Width                                    : 1 920 pixels
Height                                   : 1 080 pixels
Display aspect ratio                     : 16:9
Frame rate mode                          : Constant
Frame rate                               : 23.976 (24000/1001) FPS
Color space                              : YUV
Chroma subsampling                       : 4:2:0
Bit depth                                : 8 bits
Scan type                                : Progressive
Bits/(Pixel*Frame)                       : 0.080
Stream size                              : 2.86 GiB (81%)
Writing library                          : x264 core 157 r2935 545de2f
Encoding settings                        : cabac=1 / ref=2 / deblock=1:0:0 / analyse=0x1:0x111 / me=hex / subme=6 / psy=1 / psy_rd=1.00:0.00 / mixed_ref=1 / me_range=16 / chroma_me=1 / trellis=1 / 8x8dct=0 / cqm=0 / deadzone=21,11 / fast_pskip=1 / chroma_qp_offset=-2 / threads=18 / lookahead_threads=3 / sliced_threads=0 / nr=0 / decimate=1 / interlaced=0 / bluray_compat=0 / constrained_intra=0 / bframes=3 / b_pyramid=2 / b_adapt=1 / b_bias=0 / direct=1 / weightb=1 / open_gop=0 / weightp=1 / keyint=240 / keyint_min=24 / scenecut=40 / intra_refresh=0 / rc_lookahead=30 / rc=abr / mbtree=1 / bitrate=4000 / ratetol=1.0 / qcomp=0.60 / qpmin=0 / qpmax=69 / qpstep=4 / vbv_maxrate=50000 / vbv_bufsize=62500 / nal_hrd=none / filler=0 / ip_ratio=1.40 / aq=1:1.00
Default                                  : Yes
Forced                                   : No
Color range                              : Limited
Color primaries                          : BT.709
Transfer characteristics                 : BT.709
Matrix coefficients                      : BT.709

Audio #1
ID                                       : 2
Format                                   : AC-3
Format/Info                              : Audio Coding 3
Commercial name                          : Dolby Digital
Codec ID                                 : A_AC3
Duration                                 : 1 h 45 min
Bit rate mode                            : Constant
Bit rate                                 : 448 kb/s
Channel(s)                               : 6 channels
Channel layout                           : L R C LFE Ls Rs
Sampling rate                            : 48.0 kHz
Frame rate                               : 31.250 FPS (1536 SPF)
Compression mode                         : Lossy
Stream size                              : 337 MiB (9%)
Title                                    : WEBDL EAC3
Language                                 : Italian
Service kind                             : Complete Main
Default                                  : Yes
Forced                                   : No

Audio #2
ID                                       : 3
Format                                   : AC-3
Format/Info                              : Audio Coding 3
Commercial name                          : Dolby Digital
Codec ID                                 : A_AC3
Duration                                 : 1 h 44 min
Bit rate mode                            : Constant
Bit rate                                 : 448 kb/s
Channel(s)                               : 6 channels
Channel layout                           : L R C LFE Ls Rs
Sampling rate                            : 48.0 kHz
Frame rate                               : 31.250 FPS (1536 SPF)
Compression mode                         : Lossy
Stream size                              : 335 MiB (9%)
Title                                    : EAC3
Language                                 : Japanese
Service kind                             : Complete Main
Default                                  : No
Forced                                   : No


Trackers List

Tracker Name
udp://tracker.coppersurfer.tk:6969/announce
udp://tracker.leechers-paradise.org:6969/announce
udp://tracker.pirateparty.gr:6969/announce
udp://exodus.desync.com:6969/announce
udp://tracker.opentrackr.org:1337/announce
udp://tracker.internetwarriors.net:1337/announce
udp://tracker.cyberia.is:6969/announce
udp://open.demonii.si:1337/announce
udp://open.stealth.si:80/announce
udp://tracker.tiny-vps.com:6969/announce
udp://tracker.iamhansen.xyz:2000/announce
udp://explodie.org:6969/announce
udp://denis.stalker.upeer.me:6969/announce
udp://ipv4.tracker.harry.lu:80/announce

Torrent File Content

Miyo un amore felino- (2020) ITA-JAP Ac3 5.1 WEBRip 1080p H264 [ArMor]
  • Miyo.Un.amore.felino.2020.ITA-JAP.WEBDL.1080p_track4_ita_forced.srt (2.8 KB)
  • Miyo.Un.amore.felino.2020.ITA-JAP.WEBDL.1080p_track5_ita.srt (94.5 KB)
  • 325tYFGFHM.jpg (194.1 KB)
  • Miyo un amore felino- (2020) ITA-JAP Ac3 5.1 WEBRip 1080p H264 [ArMor].mkv (3.5 GB)


Latest Searches