Mirai (2018) [1080p x265 HEVC 10bit BluRay Dual Audio AAC 5.1] [Prof]


    Seeders : 16      Leechers : 8

Downloads : 103
Language : English




Description



Mirai no Mirai

Synopsis

In a quiet corner of the city, four-year-old Kun Oota has lived a spoiled life as an only child with his parents and the family dog, Yukko. But when his new baby sister Mirai is brought home, his simple life is thrown upside-down; suddenly, it isn't all about him anymore. Despite his tantrums and nagging, Mirai is seemingly now the subject of all his parents' love.

To help him adapt to this drastic change, Kun is taken on an extraordinary journey through time, meeting his family's past, present, and future selves, as he learns not only what it means to be a part of a family, but also what it means to be an older brother.

[Written by MAL Rewrite]

Alternative Titles

English: Mirai
Synonyms: Mirai of the Future
Japanese: 未来のミライ

Information

Type: Movie
Episodes: 1
Status: Finished Airing
Aired: Jul 20, 2018
Producers: Toho, NTT Docomo, Nippon Television Network, Kadokawa, D.N.dreampartners, Sonilude
Licensors: NYAV Post, GKIDS
Studios: Studio Chizu
Source: Original
Genres: Adventure, Drama, Fantasy
Duration: 1 hr. 38 min.
Rating: G - All Ages







Format : Matroska
Format version : Version 4
File size : 4.18 GiB
Duration : 1 h 38 min
Overall bit rate : 6 086 kb/s
Movie name : Mirai
Encoded date : UTC 2020-03-25 00:59:17
Writing application : mkvmerge v41.0.0 ('Smarra') 64-bit
Writing library : libebml v1.3.9 + libmatroska v1.5.2

Video
ID : 1
Format : HEVC
Format/Info : High Efficiency Video Coding
Format profile : Main [email protected]@Main
Codec ID : V_MPEGH/ISO/HEVC
Duration : 1 h 38 min
Bit rate : 4 132 kb/s
Width : 1 920 pixels
Height : 1 036 pixels
Display aspect ratio : 1.85:1
Frame rate mode : Constant
Frame rate : 23.976 (24000/1001) FPS
Color space : YUV
Chroma subsampling : 4:2:0
Bit depth : 10 bits
Bits/(Pixel*Frame) : 0.087
Stream size : 2.84 GiB (68%)
Writing library : x265 3.3+2-gd9a7411cc:[Windows][MSVC 1925][64 bit] 10bit
Encoding settings : cpuid=1111039 / frame-threads=3 / numa-pools=12 / wpp / no-pmode / no-pme / no-psnr / no-ssim / log-level=2 / input-csp=1 / input-res=1920x1036 / interlace=0 / total-frames=141577 / level-idc=0 / high-tier=1 / uhd-bd=0 / ref=4 / no-allow-non-conformance / no-repeat-headers / annexb / no-aud / no-hrd / info / hash=0 / no-temporal-layers / open-gop / min-keyint=23 / keyint=250 / gop-lookahead=0 / bframes=8 / b-adapt=2 / b-pyramid / bframe-bias=0 / rc-lookahead=80 / lookahead-slices=6 / scenecut=40 / hist-scenecut=0 / radl=0 / no-splice / no-intra-refresh / ctu=64 / min-cu-size=8 / rect / no-amp / max-tu-size=32 / tu-inter-depth=1 / tu-intra-depth=1 / limit-tu=0 / rdoq-level=2 / dynamic-rd=0.00 / no-ssim-rd / signhide / no-tskip / nr-intra=0 / nr-inter=0 / no-constrained-intra / strong-intra-smoothing / max-merge=3 / limit-refs=3 / limit-modes / me=3 / subme=3 / merange=57 / temporal-mvp / no-frame-dup / no-hme / weightp / no-weightb / no-analyze-src-pics / deblock=0:0 / sao / no-sao-non-deblock / rd=4 / selective-sao=4 / no-early-skip / rskip / no-fast-intra / no-tskip-fast / no-cu-lossless / no-b-intra / no-splitrd-skip / rdpenalty=0 / psy-rd=0.30 / psy-rdoq=1.00 / no-rd-refine / no-lossless / cbqpoffs=0 / crqpoffs=0 / rc=crf / crf=18.0 / qcomp=0.60 / qpstep=4 / stats-write=0 / stats-read=0 / ipratio=1.40 / pbratio=1.30 / aq-mode=2 / aq-strength=1.00 / cutree / zone-count=0 / no-strict-cbr / qg-size=32 / no-rc-grain / qpmax=69 / qpmin=0 / no-const-vbv / sar=0 / overscan=0 / videoformat=5 / range=0 / colorprim=2 / transfer=2 / colormatrix=2 / chromaloc=0 / display-window=0 / cll=0,0 / min-luma=0 / max-luma=1023 / log2-max-poc-lsb=8 / vui-timing-info / vui-hrd-info / slices=1 / no-opt-qp-pps / no-opt-ref-list-length-pps / no-multi-pass-opt-rps / scenecut-bias=0.05 / hist-threshold=0.01 / no-opt-cu-delta-qp / no-aq-motion / no-hdr10 / no-hdr10-opt / no-dhdr10-opt / no-idr-recovery-sei / analysis-reuse-level=0 / analysis-save-reuse-level=0 / analysis-load-reuse-level=0 / scale-factor=0 / refine-intra=0 / refine-inter=0 / refine-mv=1 / refine-ctu-distortion=0 / no-limit-sao / ctu-info=0 / no-lowpass-dct / refine-analysis-type=0 / copy-pic=1 / max-ausize-factor=1.0 / no-dynamic-refine / no-single-sei / no-hevc-aq / no-svt / no-field / qp-adaptation-range=1.00 / no-scenecut-aware-qpconformance-window-offsets / right=0 / bottom=0
Default : Yes
Forced : No

Audio #1
ID : 2
Format : AAC LC
Format/Info : Advanced Audio Codec Low Complexity
Codec ID : A_AAC-2
Duration : 1 h 38 min
Bit rate : 954 kb/s
Channel(s) : 6 channels
Channel layout : C L R Ls Rs LFE
Sampling rate : 48.0 kHz
Frame rate : 46.875 FPS (1024 SPF)
Compression mode : Lossy
Delay relative to video : 9 ms
Stream size : 672 MiB (16%)
Language : English
Default : Yes
Forced : No

Audio #2
ID : 3
Format : AAC LC
Format/Info : Advanced Audio Codec Low Complexity
Codec ID : A_AAC-2
Duration : 1 h 38 min
Bit rate : 947 kb/s
Channel(s) : 6 channels
Channel layout : C L R Ls Rs LFE
Sampling rate : 48.0 kHz
Frame rate : 46.875 FPS (1024 SPF)
Compression mode : Lossy
Delay relative to video : 9 ms
Stream size : 667 MiB (16%)
Language : Japanese
Default : No
Forced : No

Text #1
ID : 4
Format : PGS
Muxing mode : zlib
Codec ID : S_HDMV/PGS
Codec ID/Info : Picture based subtitle format used on BDs/HD-DVDs
Duration : 1 h 32 min
Bit rate : 31.9 kb/s
Count of elements : 2183
Stream size : 21.2 MiB (0%)
Language : English
Default : No
Forced : No

Text #2
ID : 5
Format : PGS
Muxing mode : zlib
Codec ID : S_HDMV/PGS
Codec ID/Info : Picture based subtitle format used on BDs/HD-DVDs
Duration : 1 h 35 min
Bit rate : 17.6 kb/s
Count of elements : 2298
Stream size : 12.1 MiB (0%)
Language : English
Default : No
Forced : No

Text #3
ID : 6
Format : PGS
Muxing mode : zlib
Codec ID : S_HDMV/PGS
Codec ID/Info : Picture based subtitle format used on BDs/HD-DVDs
Duration : 1 h 32 min
Bit rate : 33.1 kb/s
Count of elements : 2225
Stream size : 22.0 MiB (1%)
Language : Spanish
Default : No
Forced : No

Menu
00:00:00.000 : en:Chapter 01
00:02:39.409 : en:Chapter 02
00:09:02.166 : en:Chapter 03
00:13:13.959 : en:Chapter 04
00:20:35.734 : en:Chapter 05
00:25:47.045 : en:Chapter 06
00:32:04.714 : en:Chapter 07
00:41:28.527 : en:Chapter 08
00:46:47.012 : en:Chapter 09
00:54:56.001 : en:Chapter 10
00:59:11.965 : en:Chapter 11
01:05:50.237 : en:Chapter 12
01:09:55.274 : en:Chapter 13
01:16:36.842 : en:Chapter 14
01:22:53.426 : en:Chapter 15
01:30:06.901 : en:Chapter 16
01:33:15.131 : en:Chapter 17

Source:



Coming soon:

4k UHD

Guardians of the Galaxy
Guardians of the Galaxy Vol. 2
Fury
Get Out

1080p

Kick Ass 2
Gravity
The Wolf of Wall Street

TV

Last Week Tonight (ongoing)
Workaholics S03

Anime

Attack on Titan S03P02
Angel Beats
Fate/Zero
Wolf Children


Trackers List

Tracker Name
udp://tracker.coppersurfer.tk:6969/announce
udp://tracker.torrent.eu.org:451/announce
udp://tracker.tiny-vps.com:6969/announce
udp://denis.stalker.upeer.me:6969/announce
udp://tracker.cyberia.is:6969/announce
udp://open.stealth.si:80/announce
http://nyaa.tracker.wf:7777/announce

Torrent File Content

  • Mirai (2018) [1080p x265 HEVC 10bit BluRay Dual Audio AAC 5.1] [Prof].mkv (4.2 GB)


Latest Searches