Midway (2019) 1080p 5.1 - 2.0 x264 Phun Psyz


    Seeders : 3      Leechers : 3

Movie : Midway
Downloads : 15
Language : English
tag : Midway,2019,1080p,x264,Phun Psyz,
Genres : War,History,Action,Drama,
Release date : 2019
Summary : The story of the soldiers and aviators who helped turn the tide of the Second World War during the iconic Battle of Midway in June 1942.




Description

www.imdb.com/title/tt6924650/

The story of the Battle of Midway, told by the leaders and the sailors who fought it.

Source: FGT (Remux)



Format : MPEG-4
Format profile : Base Media / Version 2
Codec ID : mp42 (isom/iso2/avc1/mp41)
File size : 2.46 GiB
Duration : 2 h 18 min
Overall bit rate mode : Variable
Overall bit rate : 2 539 kb/s
Writing application : HandBrake 1.2.0 2018121700

Video
ID : 1
Format : AVC
Format/Info : Advanced Video Codec
Format profile : [email protected]
Format settings : CABAC / 1 Ref Frames
Format settings, CABAC : Yes
Format settings, Reference : 1 frame
Codec ID : avc1
Codec ID/Info : Advanced Video Coding
Duration : 2 h 18 min
Bit rate : 2 051 kb/s
Width : 1 920 pixels
Height : 800 pixels
Display aspect ratio : 2.40:1
Frame rate mode : Variable
Frame rate : 23.976 FPS
Color space : YUV
Chroma subsampling : 4:2:0
Bit depth : 8 bits
Scan type : Progressive
Bits/(Pixel*Frame) : 0.056
Stream size : 1.98 GiB (81%)
Writing library : x264 core 157 r2935 545de2f
Color range : Limited
Color primaries : BT.709
Transfer characteristics : BT.709
Matrix coefficients : BT.709

Audio #1
ID : 2
Format : AC-3
Format/Info : Audio Coding 3
Commercial name : Dolby Digital
Codec ID : ac-3
Duration : 2 h 18 min
Bit rate mode : Constant
Bit rate : 320 kb/s
Channel(s) : 6 channels
Channel layout : L R C LFE Ls Rs
Sampling rate : 48.0 kHz
Frame rate : 31.250 FPS (1536 SPF)
Bit depth : 16 bits
Compression mode : Lossy
Stream size : 317 MiB (13%)
Title : Surround
Language : English

Audio #2
ID : 3
Format : AAC LC
Format/Info : Advanced Audio Codec Low Complexity
Codec ID : mp4a-40-2
Duration : 2 h 18 min
Bit rate mode : Constant
Bit rate : 160 kb/s
Channel(s) : 2 channels
Channel layout : L R
Sampling rate : 48.0 kHz
Frame rate : 46.875 FPS (1024 SPF)
Compression mode : Lossy
Stream size : 159 MiB (6%)
Title : Stereo
Language : English

Text
Language : English
Default : Yes
Language : English
Default : No
Forced : No


Trackers List

Tracker Name
udp://tracker.coppersurfer.tk:6969/announce
udp://tracker.opentrackr.org:1337/announce
udp://thetracker.org:80/announce
udp://tracker.pirateparty.gr:6969/announce
udp://tracker.internetwarriors.net:1337/announce
udp://tracker.torrent.eu.org:451/announce
udp://tracker.tiny-vps.com:6969/announce
udp://explodie.org:6969/announce
http://explodie.org:6969/announce
udp://open.stealth.si:80/announce
udp://open.demonii.si:1337/announce
udp://tracker.uw0.xyz:6969/announce
udp://ipv4.tracker.harry.lu:80/announce
udp://denis.stalker.upeer.me:6969/announce
http://open.acgtracker.com:1096/announce

Torrent File Content

  • Midway (2019) 1080p 5.1 - 2.0 x264 Phun Psyz.mp4 (2.5 GB)

Related torrents

Torrent Name Added Size Seed Leech
1 month ago 2.5 GB 4957 4284
1 month ago 1.2 GB 4215 3402
1 month ago 2.5 GB 3444 1631
1 month ago 1.2 GB 2247 1022
2 months ago 3.8 GB 2179 816


Latest Searches