Marjaavaan (2019) 720p Untouched AMZN WEB-DL HEVC H265 DDP5.1 - ESUB ~ Ranvijay - DusIcTv


    Seeders : 4      Leechers : 11

Movie : Marjaavaan
Downloads : 59
Language : Hindi
tag : Ranvijay,ShareSpark,DusIcTv,
Genres : Romance,Action,
Release date : 2019
Summary : Marjaavaan is an upcoming Indian action romance film directed by Milap Zaveri starring Ritesh Deshmukh, Sidharth Malhotra, Tara Sutaria and Rakul Preet Singh. It is a story of love birds Raghu and Zoya enjoying their lives until a vertically challenged gang leader with harmful intentions turn their world upside down.




Description



Marjaavaan (2019) 720p Untouched AMZN WEB-DL HEVC H265 DDP5.1 - ESUB ~ Ranvijay - DusIcTv

General
Format : Matroska
Format version : Version 4 / Version 2
File size : 1.99 GiB
Duration : 2 h 13 min
Overall bit rate : 2 133 kb/s
Movie name : Marjaavaan (2019) 720p Untouched AMZN WEB-DL HEVC H265 DDP5.1 - ESUB ~ Ranvijay - DusIcTv
Encoded date : UTC 2020-01-09 20:52:02
Writing application : mkvmerge v20.0.0 ('I Am The Sun') 32-bit
Writing library : libebml v1.3.5 + libmatroska v1.4.8

Video
ID : 1
Format : HEVC
Format/Info : High Efficiency Video Coding
Format profile : [email protected]@Main
Codec ID : V_MPEGH/ISO/HEVC
Duration : 2 h 13 min
Bit rate : 1 491 kb/s
Width : 1 280 pixels
Height : 544 pixels
Display aspect ratio : 2.35:1
Original display aspect ratio : 2.35:1
Frame rate mode : Constant
Frame rate : 24.000 FPS
Standard : NTSC
Color space : YUV
Chroma subsampling : 4:2:0
Bit depth : 8 bits
Bits/(Pixel*Frame) : 0.089
Stream size : 1.39 GiB (70%)
Title : ~Ranvijay~
Default : Yes
Forced : No
Color range : Limited
Color primaries : BT.709
Transfer characteristics : BT.709
Matrix coefficients : BT.709

Audio
ID : 2
Format : E-AC-3
Format/Info : Enhanced Audio Coding 3
Codec ID : A_EAC3
Duration : 2 h 13 min
Bit rate mode : Constant
Bit rate : 640 kb/s
Channel(s) : 6 channels
Channel positions : Front: L C R, Side: L R, LFE
Sampling rate : 48.0 kHz
Frame rate : 187.500 FPS (256 SPF)
Compression mode : Lossy
Stream size : 611 MiB (30%)
Title : ~Ranvijay~
Language : Hindi
Service kind : Complete Main
Default : Yes
Forced : No

Text
ID : 3
Format : UTF-8
Codec ID : S_TEXT/UTF8
Codec ID/Info : UTF-8 Plain Text
Duration : 2 h 6 min
Bit rate : 34 b/s
Count of elements : 1044
Stream size : 31.6 KiB (0%)
Title : ~Ranvijay~
Default : Yes
Forced : No



Trackers List

Tracker Name
udp://tracker.pirateparty.gr:6969/announce
udp://tracker.tiny-vps.com:6969/announce
udp://open.stealth.si:80/announce
udp://tracker.opentrackr.org:1337/announce
udp://tracker.internetwarriors.net:1337/announce
udp://9.rarbg.to:2740/announce
udp://tracker1.itzmx.com:8080/announce
udp://9.rarbg.me:2710/announce
udp://thetracker.org:80/announce
udp://tracker.coppersurfer.tk:6969/announce
https://tracker.fastdownload.xyz:443/announce
udp://torrentclub.tech:6969/announce
udp://open.demonii.si:1337/announce
http://seeders-paradise.org:80/announce
http://share.camoe.cn:8080/announce
udp://9.rarbg.com:2710/announce
udp://9.rarbg.me:2710/announce
http://open.acgnxtracker.com:80/announce
udp://9.rarbg.to:2740/announce
udp://shadowshq.yi.org:6969/announce
udp://eddie4.nl:6969/announce
udp://tracker.leechers-paradise.org:6969/announce
udp://p4p.arenabg.ch:1337/announce
udp://p4p.arenabg.com:1337/announce
udp://9.rarbg.me:2710/announce
udp://ipv4.tracker.harry.lu:80/announce
udp://tracker.grepler.com:6969/announce
udp://public.popcorn-tracker.org:6969/announce
udp://tracker.zer0day.to:1337/announce
udp://coppersurfer.tk:6969/announce
https://bwt.pw/announce.php

Torrent File Content

Marjaavaan (2019) 720p Untouched AMZN WEB-DL HEVC H265 DDP5.1 - ESUB ~ Ranvijay - DusIcTv
  • Marjaavaan (2019) 720p Untouched AMZN WEB-DL HEVC H265 DDP5.1 - ESUB ~ Ranvijay - DusIcTv.mkv (2.0 GB)

Related torrents

Torrent Name Added Size Seed Leech
6 months ago 1 GB 707 237
8 months ago 1 GB 421 171
6 months ago 1.9 GB 131 28
6 months ago 1.3 GB 103 33
6 months ago 1.4 GB 70 21


Latest Searches