L.Attacco.Dei.Giganti.2.Le.Ali.Della.Liberta.720p.x264.ITA.JAP.MadHex


    Seeders : 0      Leechers : 1

Downloads : 3
Language : Italian
tag : anime,x264,720p,ita,jap,madhex,




Description





[INFO]

L'attacco dei giganti. Il film - Parte II: Le ali della libertà è un film di genere Animazione, Fantastico, Azione del 2015 diretto da Tetsuro Araki con Yûki Kaji e Yui Ishikawa. Durata: 123 min. Distribuito in Italia da Nexo Digital. Paese di produzione: Giappone.

[TRAMA]

Ne L'attacco dei giganti - Il Film: parte II. Le ali della libertà la saga continua ed Eren scopre che per tutto il tempo è stato rinchiuso nei sotterranei della sede della commissione e che verrà sottoposto al giudizio della corte marziale, presieduta dal comandante supremo Dallis Zacklay, l'uomo a capo di tutti i tre Corpi militari. Mentre il Corpo di Guarnigione ha del tutto rinunciato ad avanzare pretese su Eren per il terrore che la sua trasformazione in Gigante suscita in molti dei suoi uomini, il Corpo di Gendarmeria desidera studiarlo minuziosamente per poi eliminarlo. La sua unica speranza di salvezza è costituita dal Corpo di Ricerca (nel quale, fra l'altro, Erin desidera entrare da tempo). Il Corpo lo utilizzerebbe infatti in battaglia per eliminare il maggior numero possibile di nemici...

[SCREENSHOT]



[REPORT]

Code:



Video
ID : 1
Format : AVC
Format/Info : Advanced Video Codec
Format profile : [email protected]
Format settings : CABAC / 6 Ref Frames
Format settings, CABAC : Yes
Format settings, Reference frames : 6 frames
Codec ID : avc1
Codec ID/Info : Advanced Video Coding
Duration : 2 h 0 min
Bit rate : 1 070 kb/s
Width : 720 pixels
Height : 404 pixels
Display aspect ratio : 16:9
Frame rate mode : Constant
Frame rate : 23.976 (24000/1001) FPS
Color space : YUV
Chroma subsampling : 4:2:0
Bit depth : 8 bits
Scan type : Progressive
Bits/(Pixel*Frame) : 0.153
Stream size : 919 MiB (73%)
Writing library : x264 core 148 r2795 aaa9aa8
Encoding settings : cabac=1 / ref=6 / deblock=1:1:1 / analyse=0x3:0x113 / me=hex / subme=7 / psy=1 / psy_rd=0.40:0.00 / mixed_ref=1 / me_range=16 / chroma_me=1 / trellis=1 / 8x8dct=1 / cqm=0 / deadzone=21,11 / fast_pskip=1 / chroma_qp_offset=-2 / threads=12 / lookahead_threads=2 / sliced_threads=0 / nr=0 / decimate=1 / interlaced=0 / bluray_compat=0 / constrained_intra=0 / bframes=5 / b_pyramid=2 / b_adapt=1 / b_bias=0 / direct=1 / weightb=1 / open_gop=0 / weightp=2 / keyint=250 / keyint_min=23 / scenecut=40 / intra_refresh=0 / rc_lookahead=40 / rc=crf / mbtree=1 / crf=17.0 / qcomp=0.60 / qpmin=0 / qpmax=69 / qpstep=4 / ip_ratio=1.40 / aq=1:0.60
Menus : 4
Codec configuration box : avcC

Audio #1
ID : 2
Format : AAC LC
Format/Info : Advanced Audio Codec Low Complexity
Codec ID : mp4a-40-2
Duration : 2 h 0 min
Duration_LastFrame : -11 ms
Bit rate mode : Constant
Bit rate : 197 kb/s
Channel(s) : 6 channels
Channel layout : C L R Ls Rs LFE
Sampling rate : 48.0 kHz
Frame rate : 46.875 FPS (1024 SPF)
Compression mode : Lossy
Stream size : 170 MiB (13%)
Title : Italiano DTSHD-MA
Language : Italian
Default : Yes
Alternate group : 1
Menus : 4

Audio #2
ID : 3
Format : AAC LC
Format/Info : Advanced Audio Codec Low Complexity
Codec ID : mp4a-40-2
Duration : 2 h 0 min
Bit rate mode : Constant
Bit rate : 197 kb/s
Channel(s) : 6 channels
Channel layout : C L R Ls Rs LFE
Sampling rate : 48.0 kHz
Frame rate : 46.875 FPS (1024 SPF)
Compression mode : Lossy
Stream size : 169 MiB (13%)
Title : Giapponese
Language : Japanese
Default : No
Alternate group : 1
Menus : 4

Menu #1
ID : 4
Codec ID : text
Duration : 2 h 0 min
Language : English
Bit rate mode : CBR
Menu For : 1,2,3
00:00:00.000 : 00:00:00.000
00:04:39.659 : 00:04:39.696
00:17:16.749 : 00:17:16.786
00:36:44.415 : 00:36:44.452
00:54:46.163 : 00:54:46.200
01:05:26.219 : 01:05:26.256
01:21:28.430 : 01:21:28.467
01:41:24.041 : 01:41:24.078
01:52:11.438 : 01:52:11.475
Bit rate mode : Constant

Menu #2
00:00:00.000 : 00:00:00.000
00:04:39.659 : 00:04:39.696
00:17:16.749 : 00:17:16.786
00:36:44.415 : 00:36:44.452
00:54:46.163 : 00:54:46.200
01:05:26.219 : 01:05:26.256
01:21:28.430 : 01:21:28.467
01:41:24.041 : 01:41:24.078
01:52:11.438 : 01:52:11.475







Trackers List

Tracker Name
http://0205.uptm.ch:6969/announce
http://bobbialbano.com:6969/announce
http://explodie.org:6969/announce
http://h4.trakx.nibba.trade:80/announce
http://retracker.sevstar.net:2710/announce
http://share.camoe.cn:8080/announce
http://t.nyaatracker.com/announce
http://t.nyaatracker.com:80/announce
http://t.overflow.biz:6969/announce
http://torrenttracker.nwc.acsalaska.net:6969/announce
http://pow7.com:80/announce
http://tracker.anonwebz.xyz:8080/announce
http://tracker.bt4g.com:2095/announce
http://tracker.files.fm:6969/announce
http://tracker.gbitt.info:80/announce
http://vpn.flying-datacenter.de:6969/announce
http://vps02.net.orel.ru:80/announce
https://1337.abcvg.info:443/announce
https://tracker.imgoingto.icu:443/announce
https://tracker.nitrix.me:443/announce
https://tracker.tamersunion.org:443/announce
https://trakx.herokuapp.com:443/announce
https://w.wwwww.wtf:443/announce
udp://9.rarbg.com:2710/announce
udp://9.rarbg.to:2710/announce
udp://9.rarbg.to:2720/announce
udp://9.rarbg.to:2730/announce
udp://9.rarbg.to:2740/announce
udp://9.rarbg.to:2770/announce
udp://9.rarbg.to:2790/announce
udp://exodus.desync.com:6969/announce
udp://explodie.org:6969/announce
udp://ipv4.tracker.harry.lu:80/announce
udp://open.stealth.si:80/announce
udp://opentor.org:2710/announce
udp://p4p.arenabg.com:1337/announce
udp://retracker.lanta-net.ru:2710/announce
udp://tracker.cyberia.is:6969/announce
udp://tracker.leechers-paradise.org:6969/announce
udp://tracker.moeking.me:6969/announce
udp://tracker.open-internet.nl:6969/announce
udp://tracker.openbittorrent.com:80/announce
udp://tracker.opentrackr.org:1337/announce
udp://tracker.tiny-vps.com:6969/announce
udp://tracker.torrent.eu.org:451/announce
udp://tracker.yoshi210.com:6969/announce

Torrent File Content

  • L.Attacco.Dei.Giganti.2.Le.Ali.Della.Liberta.720p.x264.ITA.JAP.MadHex.mp4 (1.2 GB)


Latest Searches