Juno (2007) (1080p BDRip x265 10bit DTS-HD MA 5.1 - WEM)[TAoE].mkv


    Seeders : 19      Leechers : 3

Movie : Juno
Downloads : 59
Language : English
tag : HEVC,MKV,
Genres : Comedy,Drama,Romance,
Release date : 2007
Summary : A young girl named Juno gets herself pregnant and tries to stand on her own. She soon learns a few lessons about being grown up.




Description



Hello everyone,
We are TAoE, a small team of passionate encoders who love encoding. We try our best to provide you with high quality releases.

Requests for movies and shows are welcome.
We have a form for encode requests which can be found here
Encode requests form
submit your request and it will be added to our encoding request list
You can view our encoding request list here
Encode requests list


When or if we encode it will depend on if we can obtain a good source to encode with and
if one of the TAoE encoders chooses to encode it. Unfortunately we are not able to encode everything,
new members are welcome as that helps us encode more content!

If you would like to join TAoE submit your request here!
TAoE member applications form




Juno (2007) IMDB












Encode Media Information


General
Unique ID : 138632898852222879231500922857453506464 (0x684BB9A14FC7A60525BBB8FD02FFCFA0)
Complete name : Juno (2007) (1080p BDRip x265 10bit DTS-HD MA 5.1 - WEM)[TAoE].mkv
Format : Matroska
Format version : Version 4
File size : 10.3 GiB
Duration : 1 h 36 min
Overall bit rate mode : Variable
Overall bit rate : 15.3 Mb/s
Writing application : Lavf58.29.100
Writing library : Lavf58.29.100
ErrorDetectionType : Per level 1

Video
ID : 1
Format : HEVC
Format/Info : High Efficiency Video Coding
Format profile : Main [email protected]@Main
Codec ID : V_MPEGH/ISO/HEVC
Duration : 1 h 36 min
Bit rate : 10.4 Mb/s
Width : 1 920 pixels
Height : 1 024 pixels
Display aspect ratio : 1.85:1
Frame rate mode : Constant
Frame rate : 23.976 (24000/1001) FPS
Color space : YUV
Chroma subsampling : 4:2:0
Bit depth : 10 bits
Bits/(Pixel*Frame) : 0.221
Stream size : 7.00 GiB (68%)
Title : Encoded by WEM for TAoE using Shinguru V1.9
Writing library : x265 3.2+35-acc5d16999e2:[Windows][GCC 9.2.1][64 bit] 10bit
Encoding settings : cpuid=1111039 / frame-threads=4 / numa-pools=24 / wpp / no-pmode / no-pme / no-psnr / no-ssim / log-level=2 / input-csp=1 / input-res=1920x1024 / interlace=0 / total-frames=0 / level-idc=0 / high-tier=1 / uhd-bd=0 / ref=4 / no-allow-non-conformance / no-repeat-headers / annexb / no-aud / no-hrd / info / hash=0 / no-temporal-layers / open-gop / min-keyint=23 / keyint=250 / gop-lookahead=0 / bframes=8 / b-adapt=2 / b-pyramid / bframe-bias=0 / rc-lookahead=80 / lookahead-slices=4 / scenecut=40 / hist-scenecut=0 / radl=0 / no-splice / no-intra-refresh / ctu=64 / min-cu-size=8 / no-rect / no-amp / max-tu-size=32 / tu-inter-depth=1 / tu-intra-depth=1 / limit-tu=0 / rdoq-level=2 / dynamic-rd=0.00 / no-ssim-rd / signhide / no-tskip / nr-intra=0 / nr-inter=0 / no-constrained-intra / no-strong-intra-smoothing / max-merge=3 / limit-refs=3 / limit-modes / me=3 / subme=5 / merange=57 / temporal-mvp / no-frame-dup / no-hme / weightp / no-weightb / no-analyze-src-pics / deblock=0:0 / sao / no-sao-non-deblock / rd=4 / selective-sao=4 / no-early-skip / rskip / no-fast-intra / no-tskip-fast / no-cu-lossless / no-b-intra / no-splitrd-skip / rdpenalty=0 / psy-rd=1.30 / psy-rdoq=2.00 / no-rd-refine / no-lossless / cbqpoffs=0 / crqpoffs=0 / rc=crf / crf=20.0 / qcomp=0.60 / qpstep=4 / stats-write=0 / stats-read=0 / ipratio=1.40 / pbratio=1.30 / aq-mode=4 / aq-strength=1.10 / cutree / zone-count=0 / no-strict-cbr / qg-size=32 / no-rc-grain / qpmax=69 / qpmin=0 / no-const-vbv / sar=1 / overscan=0 / videoformat=5 / range=0 / colorprim=2 / transfer=2 / colormatrix=2 / chromaloc=0 / display-window=0 / cll=0,0 / min-luma=0 / max-luma=1023 / log2-max-poc-lsb=8 / vui-timing-info / vui-hrd-info / slices=1 / no-opt-qp-pps / no-opt-ref-list-length-pps / no-multi-pass-opt-rps / scenecut-bias=0.05 / hist-threshold=0.01 / no-opt-cu-delta-qp / no-aq-motion / no-hdr10 / no-hdr10-opt / no-dhdr10-opt / no-idr-recovery-sei / analysis-reuse-level=0 / analysis-save-reuse-level=0 / analysis-load-reuse-level=0 / scale-factor=0 / refine-intra=0 / refine-inter=0 / refine-mv=1 / refine-ctu-distortion=0 / no-limit-sao / ctu-info=0 / no-lowpass-dct / refine-analysis-type=0 / copy-pic=1 / max-ausize-factor=1.0 / no-dynamic-refine / no-single-sei / no-hevc-aq / no-svt / no-field / qp-adaptation-range=1.00 / no-scenecut-aware-qpconformance-window-offsets / right=0 / bottom=0
Default : Yes
Forced : No
Color range : Limited

Audio #1
ID : 2
Format : DTS XLL
Format/Info : Digital Theater Systems
Commercial name : DTS-HD Master Audio
Codec ID : A_DTS
Duration : 1 h 36 min
Bit rate mode : Variable
Bit rate : 3 849 kb/s
Channel(s) : 6 channels
Channel layout : C L R Ls Rs LFE
Sampling rate : 48.0 kHz
Frame rate : 93.750 FPS (512 SPF)
Bit depth : 24 bits
Compression mode : Lossless
Stream size : 2.58 GiB (25%)
Language : English
Default : Yes
Forced : No

Audio #2
ID : 3
Format : AC-3
Format/Info : Audio Coding 3
Commercial name : Dolby Digital
Codec ID : A_AC3
Duration : 1 h 36 min
Bit rate mode : Constant
Bit rate : 224 kb/s
Channel(s) : 2 channels
Channel layout : L R
Sampling rate : 48.0 kHz
Frame rate : 31.250 FPS (1536 SPF)
Bit depth : 32 bits
Compression mode : Lossy
Stream size : 154 MiB (1%)
Title : Commentary by Jason Reitman/Diablo Cody
Language : English
Service kind : Complete Main
Default : No
Forced : No

Text #1
ID : 4
Format : PGS
Codec ID : S_HDMV/PGS
Codec ID/Info : Picture based subtitle format used on BDs/HD-DVDs
Duration : 1 h 35 min
Bit rate : 40.4 kb/s
Count of elements : 2350
Stream size : 27.5 MiB (0%)
Title : English
Language : English
Default : No
Forced : No

Text #2
ID : 5
Format : PGS
Codec ID : S_HDMV/PGS
Codec ID/Info : Picture based subtitle format used on BDs/HD-DVDs
Duration : 1 h 35 min
Bit rate : 34.5 kb/s
Count of elements : 2254
Stream size : 23.6 MiB (0%)
Title : Italian
Language : Italian
Default : No
Forced : No

Text #3
ID : 6
Format : PGS
Codec ID : S_HDMV/PGS
Codec ID/Info : Picture based subtitle format used on BDs/HD-DVDs
Duration : 1 h 35 min
Bit rate : 37.5 kb/s
Count of elements : 2270
Stream size : 25.6 MiB (0%)
Title : German
Language : German
Default : No
Forced : No

Text #4
ID : 7
Format : PGS
Codec ID : S_HDMV/PGS
Codec ID/Info : Picture based subtitle format used on BDs/HD-DVDs
Duration : 1 h 35 min
Bit rate : 36.8 kb/s
Count of elements : 2294
Stream size : 25.1 MiB (0%)
Title : Spanish
Language : Spanish
Default : No
Forced : No

Text #5
ID : 8
Format : PGS
Codec ID : S_HDMV/PGS
Codec ID/Info : Picture based subtitle format used on BDs/HD-DVDs
Duration : 1 h 35 min
Bit rate : 29.9 kb/s
Count of elements : 2268
Stream size : 20.4 MiB (0%)
Title : Danish
Language : Danish
Default : No
Forced : No

Text #6
ID : 9
Format : PGS
Codec ID : S_HDMV/PGS
Codec ID/Info : Picture based subtitle format used on BDs/HD-DVDs
Duration : 1 h 35 min
Bit rate : 26.1 kb/s
Count of elements : 1998
Stream size : 17.8 MiB (0%)
Title : Finnish
Language : Finnish
Default : No
Forced : No

Text #7
ID : 10
Format : PGS
Codec ID : S_HDMV/PGS
Codec ID/Info : Picture based subtitle format used on BDs/HD-DVDs
Duration : 1 h 35 min
Bit rate : 29.1 kb/s
Count of elements : 2248
Stream size : 19.9 MiB (0%)
Title : Norwegian
Language : Norwegian
Default : No
Forced : No

Text #8
ID : 11
Format : PGS
Codec ID : S_HDMV/PGS
Codec ID/Info : Picture based subtitle format used on BDs/HD-DVDs
Duration : 1 h 35 min
Bit rate : 30.3 kb/s
Count of elements : 2276
Stream size : 20.7 MiB (0%)
Title : Swedish
Language : Swedish
Default : No
Forced : No

Text #9
ID : 12
Format : PGS
Codec ID : S_HDMV/PGS
Codec ID/Info : Picture based subtitle format used on BDs/HD-DVDs
Duration : 1 h 35 min
Bit rate : 31.5 kb/s
Count of elements : 2208
Stream size : 21.5 MiB (0%)
Title : Greek
Language : Greek
Default : No
Forced : No

Text #10
ID : 13
Format : PGS
Codec ID : S_HDMV/PGS
Codec ID/Info : Picture based subtitle format used on BDs/HD-DVDs
Duration : 1 h 35 min
Bit rate : 28.8 kb/s
Count of elements : 2298
Stream size : 19.7 MiB (0%)
Title : Hebrew
Language : Hebrew
Default : No
Forced : No

Text #11
ID : 14
Format : PGS
Codec ID : S_HDMV/PGS
Codec ID/Info : Picture based subtitle format used on BDs/HD-DVDs
Duration : 1 h 35 min
Bit rate : 75.8 kb/s
Count of elements : 3943
Stream size : 52.0 MiB (0%)
Title : English (Commentary)
Language : English
Default : No
Forced : No

Text #12
ID : 15
Format : PGS
Codec ID : S_HDMV/PGS
Codec ID/Info : Picture based subtitle format used on BDs/HD-DVDs
Duration : 1 h 35 min
Bit rate : 70.2 kb/s
Count of elements : 3827
Stream size : 48.2 MiB (0%)
Title : German (Commentary)
Language : German
Default : No
Forced : No

Text #13
ID : 16
Format : PGS
Codec ID : S_HDMV/PGS
Codec ID/Info : Picture based subtitle format used on BDs/HD-DVDs
Duration : 1 h 35 min
Bit rate : 65.9 kb/s
Count of elements : 3741
Stream size : 45.2 MiB (0%)
Title : Italian (Commentary)
Language : Italian
Default : No
Forced : No

Text #14
ID : 17
Format : PGS
Codec ID : S_HDMV/PGS
Codec ID/Info : Picture based subtitle format used on BDs/HD-DVDs
Duration : 1 h 35 min
Bit rate : 60.1 kb/s
Count of elements : 3529
Stream size : 41.3 MiB (0%)
Title : Spanish (Commentary)
Language : Spanish
Default : No
Forced : No

Text #15
ID : 18
Format : PGS
Codec ID : S_HDMV/PGS
Codec ID/Info : Picture based subtitle format used on BDs/HD-DVDs
Duration : 1 h 35 min
Bit rate : 54.1 kb/s
Count of elements : 3203
Stream size : 37.1 MiB (0%)
Title : Danish (Commentary)
Language : Danish
Default : No
Forced : No

Text #16
ID : 19
Format : PGS
Codec ID : S_HDMV/PGS
Codec ID/Info : Picture based subtitle format used on BDs/HD-DVDs
Duration : 1 h 35 min
Bit rate : 57.9 kb/s
Count of elements : 2995
Stream size : 39.8 MiB (0%)
Title : Finnish (Commentary)
Language : Finnish
Default : No
Forced : No

Text #17
ID : 20
Format : PGS
Codec ID : S_HDMV/PGS
Codec ID/Info : Picture based subtitle format used on BDs/HD-DVDs
Duration : 1 h 35 min
Bit rate : 62.2 kb/s
Count of elements : 3783
Stream size : 42.7 MiB (0%)
Title : Norwegian (Commentary)
Language : Norwegian
Default : No
Forced : No

Text #18
ID : 21
Format : PGS
Codec ID : S_HDMV/PGS
Codec ID/Info : Picture based subtitle format used on BDs/HD-DVDs
Duration : 1 h 35 min
Bit rate : 62.3 kb/s
Count of elements : 3729
Stream size : 42.7 MiB (0%)
Title : Swedish (Commentary)
Language : Swedish
Default : No
Forced : No

Menu
00:00:00.000 : :Autumn/Main Titles
00:04:09.749 : :Little Pink Plus
00:06:56.999 : :Up the Sport
00:09:07.463 : :Whatever
00:11:45.871 : :Freaky
00:14:06.095 : :Family Life
00:16:35.828 : :Fingernails
00:19:25.539 : :The Pennysaver
00:22:50.494 : :Anything But This
00:27:00.994 : :The Lorings
00:32:30.907 : :Jam Session
00:37:33.626 : :Winter
00:41:28.777 : :Dovetailing Interests
00:47:16.041 : :What a Surprise
00:49:52.823 : :Boundaries
00:51:52.359 : :His Only Vice
00:54:52.414 : :Nesting
00:56:27.634 : :It's Me, Vanessa
00:59:45.498 : :Spring
01:05:42.605 : :A Piece of Furniture
01:10:34.480 : :Grow Up
01:13:30.155 : :Decision Time
01:17:06.038 : :Fatherly Advice
01:20:40.085 : :The Coolest
01:23:42.934 : :We Have a Baby
01:26:17.547 : :Still In
01:29:23.900 : :Summer
01:32:19.534 : :End Titles


Source Media Information



General
Unique ID : 223633945970437649087157755269302530173 (0xA83E54D0E6F54F44B47DB80F4FD5307D)
Complete name : Juno.2007.BluRay.1080p.DTS-HD.MA.5.1.AVC.REMUX-FraMeSToR.mkv
Format : Matroska
Format version : Version 4
File size : 25.1 GiB
Duration : 1 h 36 min
Overall bit rate mode : Variable
Overall bit rate : 37.4 Mb/s
Encoded date : UTC 2017-04-05 13:29:42
Writing application : mkvmerge v10.0.0 ('To Drown In You') 64bit
Writing library : libebml v1.3.4 + libmatroska v1.4.5

Video
ID : 1
Format : AVC
Format/Info : Advanced Video Codec
Format profile : [email protected]
Format settings : CABAC / 2 Ref Frames
Format settings, CABAC : Yes
Format settings, Reference frames : 2 frames
Codec ID : V_MPEG4/ISO/AVC
Duration : 1 h 36 min
Bit rate mode : Variable
Bit rate : 32.5 Mb/s
Width : 1 920 pixels
Height : 1 080 pixels
Display aspect ratio : 16:9
Frame rate mode : Constant
Frame rate : 23.976 (24000/1001) FPS
Color space : YUV
Chroma subsampling : 4:2:0
Bit depth : 8 bits
Scan type : Progressive
Bits/(Pixel*Frame) : 0.654
Stream size : 21.8 GiB (87%)
Default : Yes
Forced : No

Audio #1
ID : 2
Format : DTS XLL
Format/Info : Digital Theater Systems
Commercial name : DTS-HD Master Audio
Codec ID : A_DTS
Duration : 1 h 36 min
Bit rate mode : Variable
Bit rate : 3 849 kb/s
Channel(s) : 6 channels
Channel layout : C L R Ls Rs LFE
Sampling rate : 48.0 kHz
Frame rate : 93.750 FPS (512 SPF)
Bit depth : 24 bits
Compression mode : Lossless
Stream size : 2.58 GiB (10%)
Language : English
Default : Yes
Forced : No

Audio #2
ID : 3
Format : AC-3
Format/Info : Audio Coding 3
Commercial name : Dolby Digital
Codec ID : A_AC3
Duration : 1 h 36 min
Bit rate mode : Constant
Bit rate : 224 kb/s
Channel(s) : 2 channels
Channel layout : L R
Sampling rate : 48.0 kHz
Frame rate : 31.250 FPS (1536 SPF)
Compression mode : Lossy
Stream size : 154 MiB (1%)
Title : Commentary by Jason Reitman/Diablo Cody
Language : English
Service kind : Complete Main
Default : No
Forced : No

Text #1
ID : 4
Format : PGS
Codec ID : S_HDMV/PGS
Codec ID/Info : Picture based subtitle format used on BDs/HD-DVDs
Duration : 1 h 35 min
Bit rate : 40.4 kb/s
Count of elements : 2350
Stream size : 27.5 MiB (0%)
Title : English
Language : English
Default : Yes
Forced : No

Text #2
ID : 5
Format : PGS
Codec ID : S_HDMV/PGS
Codec ID/Info : Picture based subtitle format used on BDs/HD-DVDs
Duration : 1 h 35 min
Bit rate : 34.5 kb/s
Count of elements : 2254
Stream size : 23.6 MiB (0%)
Title : Italian
Language : Italian
Default : No
Forced : No

Text #3
ID : 6
Format : PGS
Codec ID : S_HDMV/PGS
Codec ID/Info : Picture based subtitle format used on BDs/HD-DVDs
Duration : 1 h 35 min
Bit rate : 37.5 kb/s
Count of elements : 2270
Stream size : 25.6 MiB (0%)
Title : German
Language : German
Default : No
Forced : No

Text #4
ID : 7
Format : PGS
Codec ID : S_HDMV/PGS
Codec ID/Info : Picture based subtitle format used on BDs/HD-DVDs
Duration : 1 h 35 min
Bit rate : 36.8 kb/s
Count of elements : 2294
Stream size : 25.1 MiB (0%)
Title : Spanish
Language : Spanish
Default : No
Forced : No

Text #5
ID : 8
Format : PGS
Codec ID : S_HDMV/PGS
Codec ID/Info : Picture based subtitle format used on BDs/HD-DVDs
Duration : 1 h 35 min
Bit rate : 29.9 kb/s
Count of elements : 2268
Stream size : 20.4 MiB (0%)
Title : Danish
Language : Danish
Default : No
Forced : No

Text #6
ID : 9
Format : PGS
Codec ID : S_HDMV/PGS
Codec ID/Info : Picture based subtitle format used on BDs/HD-DVDs
Duration : 1 h 35 min
Bit rate : 26.1 kb/s
Count of elements : 1998
Stream size : 17.8 MiB (0%)
Title : Finnish
Language : Finnish
Default : No
Forced : No

Text #7
ID : 10
Format : PGS
Codec ID : S_HDMV/PGS
Codec ID/Info : Picture based subtitle format used on BDs/HD-DVDs
Duration : 1 h 35 min
Bit rate : 29.1 kb/s
Count of elements : 2248
Stream size : 19.9 MiB (0%)
Title : Norwegian
Language : Norwegian
Default : No
Forced : No

Text #8
ID : 11
Format : PGS
Codec ID : S_HDMV/PGS
Codec ID/Info : Picture based subtitle format used on BDs/HD-DVDs
Duration : 1 h 35 min
Bit rate : 30.3 kb/s
Count of elements : 2276
Stream size : 20.7 MiB (0%)
Title : Swedish
Language : Swedish
Default : No
Forced : No

Text #9
ID : 12
Format : PGS
Codec ID : S_HDMV/PGS
Codec ID/Info : Picture based subtitle format used on BDs/HD-DVDs
Duration : 1 h 35 min
Bit rate : 31.5 kb/s
Count of elements : 2208
Stream size : 21.5 MiB (0%)
Title : Greek
Language : Greek
Default : No
Forced : No

Text #10
ID : 13
Format : PGS
Codec ID : S_HDMV/PGS
Codec ID/Info : Picture based subtitle format used on BDs/HD-DVDs
Duration : 1 h 35 min
Bit rate : 28.8 kb/s
Count of elements : 2298
Stream size : 19.7 MiB (0%)
Title : Hebrew
Language : Hebrew
Default : No
Forced : No

Text #11
ID : 14
Format : PGS
Codec ID : S_HDMV/PGS
Codec ID/Info : Picture based subtitle format used on BDs/HD-DVDs
Duration : 1 h 35 min
Bit rate : 75.8 kb/s
Count of elements : 3943
Stream size : 52.0 MiB (0%)
Title : English (Commentary)
Language : English
Default : No
Forced : No

Text #12
ID : 15
Format : PGS
Codec ID : S_HDMV/PGS
Codec ID/Info : Picture based subtitle format used on BDs/HD-DVDs
Duration : 1 h 35 min
Bit rate : 70.2 kb/s
Count of elements : 3827
Stream size : 48.2 MiB (0%)
Title : German (Commentary)
Language : German
Default : No
Forced : No

Text #13
ID : 16
Format : PGS
Codec ID : S_HDMV/PGS
Codec ID/Info : Picture based subtitle format used on BDs/HD-DVDs
Duration : 1 h 35 min
Bit rate : 65.9 kb/s
Count of elements : 3741
Stream size : 45.2 MiB (0%)
Title : Italian (Commentary)
Language : Italian
Default : No
Forced : No

Text #14
ID : 17
Format : PGS
Codec ID : S_HDMV/PGS
Codec ID/Info : Picture based subtitle format used on BDs/HD-DVDs
Duration : 1 h 35 min
Bit rate : 60.1 kb/s
Count of elements : 3529
Stream size : 41.3 MiB (0%)
Title : Spanish (Commentary)
Language : Spanish
Default : No
Forced : No

Text #15
ID : 18
Format : PGS
Codec ID : S_HDMV/PGS
Codec ID/Info : Picture based subtitle format used on BDs/HD-DVDs
Duration : 1 h 35 min
Bit rate : 54.1 kb/s
Count of elements : 3203
Stream size : 37.1 MiB (0%)
Title : Danish (Commentary)
Language : Danish
Default : No
Forced : No

Text #16
ID : 19
Format : PGS
Codec ID : S_HDMV/PGS
Codec ID/Info : Picture based subtitle format used on BDs/HD-DVDs
Duration : 1 h 35 min
Bit rate : 57.9 kb/s
Count of elements : 2995
Stream size : 39.8 MiB (0%)
Title : Finnish (Commentary)
Language : Finnish
Default : No
Forced : No

Text #17
ID : 20
Format : PGS
Codec ID : S_HDMV/PGS
Codec ID/Info : Picture based subtitle format used on BDs/HD-DVDs
Duration : 1 h 35 min
Bit rate : 62.2 kb/s
Count of elements : 3783
Stream size : 42.7 MiB (0%)
Title : Norwegian (Commentary)
Language : Norwegian
Default : No
Forced : No

Text #18
ID : 21
Format : PGS
Codec ID : S_HDMV/PGS
Codec ID/Info : Picture based subtitle format used on BDs/HD-DVDs
Duration : 1 h 35 min
Bit rate : 62.3 kb/s
Count of elements : 3729
Stream size : 42.7 MiB (0%)
Title : Swedish (Commentary)
Language : Swedish
Default : No
Forced : No

Menu
00:00:00.000 : en:Autumn/Main Titles
00:04:09.749 : en:Little Pink Plus
00:06:56.999 : en:Up the Sport
00:09:07.463 : en:Whatever
00:11:45.871 : en:Freaky
00:14:06.095 : en:Family Life
00:16:35.828 : en:Fingernails
00:19:25.539 : en:The Pennysaver
00:22:50.494 : en:Anything But This
00:27:00.994 : en:The Lorings
00:32:30.907 : en:Jam Session
00:37:33.626 : en:Winter
00:41:28.777 : en:Dovetailing Interests
00:47:16.041 : en:What a Surprise
00:49:52.823 : en:Boundaries
00:51:52.359 : en:His Only Vice
00:54:52.414 : en:Nesting
00:56:27.634 : en:It's Me, Vanessa
00:59:45.498 : en:Spring
01:05:42.605 : en:A Piece of Furniture
01:10:34.480 : en:Grow Up
01:13:30.155 : en:Decision Time
01:17:06.038 : en:Fatherly Advice
01:20:40.085 : en:The Coolest
01:23:42.934 : en:We Have a Baby
01:26:17.547 : en:Still In
01:29:23.900 : en:Summer
01:32:19.534 : en:End Titles


Trackers List

Tracker Name
udp://tracker.coppersurfer.tk:6969/announce
udp://tracker.internetwarriors.net:1337/announce
http://tracker.opentrackr.org:1337/announce
udp://denis.stalker.upeer.me:6969/announce
udp://tracker.internetwarriors.net:1337
udp://9.rarbg.me:2720/announce
udp://explodie.org:6969/announce
udp://tracker.cyberia.is:6969/announce
udp://thetracker.org/announce
udp://open.demonii.si:1337/announce

Torrent File Content

  • Juno (2007) (1080p BDRip x265 10bit DTS-HD MA 5.1 - WEM)[TAoE].mkv (10.3 GB)

Related torrents

Torrent Name Added Size Seed Leech
4 years ago 500.2 MB 96 12
6 months ago 1.6 GB 19 3
7 days ago 8 GB 13 9
11 years ago 701.2 MB 12 0
3 years ago 6.2 GB 6 5


Latest Searches