Jojo Rabbit (2019) (1080p BluRay x265 HEVC 10bit DTS 5.1 Qman) [UTR]


    Seeders : 17      Leechers : 4

Movie : Jojo Rabbit
Downloads : 163
Language : English
tag : utr,qman,
Genres : Comedy,War,Drama,
Release date : 2019
Summary : A World War II satire that follows a lonely German boy whose world view is turned upside down when he discovers his single mother is hiding a young Jewish girl in their attic. Aided only by his idiotic imaginary friend, Adolf Hitler, Jojo must confront his blind nationalism.




Description

















Media Information

Media Information

Code:

General
Format : Matroska
Format version : Version 4 / Version 2
File size : 8.85 GiB
Duration : 1 h 48 min
Overall bit rate : 11.7 Mb/s
Encoded date : UTC 2020-02-10 17:46:13
Writing application : mkvmerge v41.0.0 ('Smarra') 64-bit
Writing library : libebml v1.3.9 + libmatroska v1.5.2
Writing frontend : StaxRip v2.0.2.0, Encoded by JoyBell

Video
ID : 1
Format : HEVC
Format/Info : High Efficiency Video Coding
Format profile : Main [email protected]@Main
Codec ID : V_MPEGH/ISO/HEVC
Duration : 1 h 48 min
Bit rate : 8 334 kb/s
Width : 1 920 pixels
Height : 1 040 pixels
Display aspect ratio : 1.85:1
Frame rate mode : Constant
Frame rate : 23.976 (24000/1001) FPS
Color space : YUV
Chroma subsampling : 4:2:0
Bit depth : 10 bits
Bits/(Pixel*Frame) : 0.174
Stream size : 6.31 GiB (71%)
Writing library : x265 3.2+23-52135ffd9bcd:[Windows][GCC 9.2.1][64 bit] 10bit
Encoding settings : cpuid=1111039 / frame-threads=4 / numa-pools=16 / wpp / no-pmode / no-pme / no-psnr / no-ssim / log-level=2 / input-csp=1 / input-res=1920x1040 / interlace=0 / total-frames=155928 / level-idc=0 / high-tier=1 / uhd-bd=0 / ref=4 / no-allow-non-conformance / no-repeat-headers / annexb / no-aud / no-hrd / info / hash=0 / no-temporal-layers / open-gop / min-keyint=23 / keyint=250 / gop-lookahead=0 / bframes=8 / b-adapt=2 / b-pyramid / bframe-bias=0 / rc-lookahead=80 / lookahead-slices=4 / scenecut=40 / hist-scenecut=0 / radl=0 / no-splice / no-intra-refresh / ctu=64 / min-cu-size=8 / no-rect / no-amp / max-tu-size=32 / tu-inter-depth=1 / tu-intra-depth=1 / limit-tu=0 / rdoq-level=2 / dynamic-rd=0.00 / no-ssim-rd / signhide / no-tskip / nr-intra=0 / nr-inter=0 / no-constrained-intra / no-strong-intra-smoothing / max-merge=3 / limit-refs=3 / limit-modes / me=3 / subme=5 / merange=57 / temporal-mvp / no-frame-dup / no-hme / weightp / no-weightb / no-analyze-src-pics / deblock=-1:-1 / no-sao / no-sao-non-deblock / rd=4 / selective-sao=0 / no-early-skip / no-rskip / no-fast-intra / no-tskip-fast / no-cu-lossless / no-b-intra / no-splitrd-skip / rdpenalty=0 / psy-rd=1.00 / psy-rdoq=5.00 / no-rd-refine / no-lossless / cbqpoffs=0 / crqpoffs=0 / rc=crf / crf=18.0 / qcomp=0.60 / qpstep=4 / stats-write=0 / stats-read=0 / ipratio=1.40 / pbratio=1.30 / aq-mode=2 / aq-strength=1.00 / cutree / zone-count=0 / no-strict-cbr / qg-size=32 / no-rc-grain / qpmax=69 / qpmin=0 / no-const-vbv / sar=0 / overscan=0 / videoformat=5 / range=0 / colorprim=2 / transfer=2 / colormatrix=2 / chromaloc=0 / display-window=0 / cll=0,0 / min-luma=0 / max-luma=1023 / log2-max-poc-lsb=8 / vui-timing-info / vui-hrd-info / slices=1 / no-opt-qp-pps / no-opt-ref-list-length-pps / no-multi-pass-opt-rps / scenecut-bias=0.05 / hist-threshold=0.01 / no-opt-cu-delta-qp / no-aq-motion / no-hdr / no-hdr-opt / no-dhdr10-opt / no-idr-recovery-sei / analysis-reuse-level=5 / scale-factor=0 / refine-intra=0 / refine-inter=0 / refine-mv=1 / refine-ctu-distortion=0 / no-limit-sao / ctu-info=0 / no-lowpass-dct / refine-analysis-type=0 / copy-pic=1 / max-ausize-factor=1.0 / no-dynamic-refine / no-single-sei / no-hevc-aq / no-svt / no-field / qp-adaptation-range=1.00 / no-scenecut-aware-qp
Language : English
Default : Yes
Forced : No

Audio
ID : 2
Format : DTS
Format/Info : Digital Theater Systems
Format profile : MA / Core
Mode : 16
Format settings, Endianness : Big
Codec ID : A_DTS
Duration : 1 h 48 min
Bit rate mode : Variable / Constant
Bit rate : 3 341 kb/s / 1 509 kb/s
Channel(s) : 6 channels
Channel positions : Front: L C R, Side: L R, LFE
Sampling rate : 48.0 kHz
Frame rate : 93.750 FPS (512 spf)
Bit depth : 24 bits
Compression mode : Lossless / Lossy
Stream size : 2.53 GiB (29%)
Language : English
Default : No
Forced : No

Subtitle
ID : 3
Format : VobSub
Muxing mode : zlib
Codec ID : S_VOBSUB
Codec ID/Info : Picture based subtitle format used on DVDs
Duration : 1 h 48 min
Bit rate : 11.0 kb/s
Count of elements : 1795
Stream size : 8.50 MiB (0%)
Language : English
Default : Yes
Forced : No

Menu
00:00:00.000 : en:Chapter 01
00:06:04.906 : en:Chapter 02
00:09:25.523 : en:Chapter 03
00:13:34.522 : en:Chapter 04
00:16:17.059 : en:Chapter 05
00:20:09.333 : en:Chapter 06
00:27:09.461 : en:Chapter 07
00:31:02.861 : en:Chapter 08
00:36:30.146 : en:Chapter 09
00:39:45.967 : en:Chapter 10
00:44:13.192 : en:Chapter 11
00:49:53.782 : en:Chapter 12
00:53:17.194 : en:Chapter 13
00:59:35.113 : en:Chapter 14
01:03:34.019 : en:Chapter 15
01:08:32.483 : en:Chapter 16
01:14:20.498 : en:Chapter 17
01:17:36.485 : en:Chapter 18
01:22:13.387 : en:Chapter 19
01:26:20.675 : en:Chapter 20
01:29:24.901 : en:Chapter 21
01:32:28.042 : en:Chapter 22
01:37:15.371 : en:Chapter 23
01:41:03.015 : en:Chapter 24



Source Information

Code:

Release:
Unknown Source/NO-GROUP





Trackers List

Tracker Name
udp://9.rarbg.com:2710/announce
udp://tracker.opentrackr.org:1337/announce
udp://tracker.torrent.eu.org:451/announce
udp://tracker.leechers-paradise.org:6969/announce
udp://tracker.coppersurfer.tk:6969/announce

Torrent File Content

Jojo Rabbit (2019) (1080p BluRay x265 HEVC 10bit DTS 5.1 Qman) [UTR]
  • Jojo Rabbit (2019).1080p.BluRay.x265.10bit.DTS.5.1-Qman[UTR].mkv (8.8 GB)

Related torrents

Torrent Name Added Size Seed Leech
7 months ago 1.9 GB 4413 3248
7 months ago 995.2 MB 2494 1654
7 months ago 1.9 GB 2247 1216
9 months ago 1.3 GB 2018 846
7 months ago 996.5 MB 1045 449


Latest Searches