Jerry.Maguire.1996.2160p.UHD.HDR.BluRay.x265.10bit.DD5.1.[WMAN-LorD]


    Seeders : 12      Leechers : 16

Downloads : 242
Language : English
tag : UHD,WMAN,Comedy,Drama,Romance,




Description

Release info:


>Encoded by: [WMAN-LorD]
>HDR working!
>Source: Blu-ray Original 4k HDR












Code:


General
Unique ID : 235878113467768736519608288882535637013 (0xB17478E1CAC982A91BC60EFCEC172015)
Complete name : Jerry.Maguire.1996.2160p.UHD.HDR.BluRay.x265.10bit.DD5.1.[WMAN-LorD].mkv
Format : Matroska
Format version : Version 4
File size : 10.8 GiB
Duration : 2 h 18 min
Overall bit rate : 11.1 Mb/s
Movie name : Jerry Maguire (1996) [WMAN-LorD]
Encoded date : UTC 2020-06-23 19:14:38
Writing application : mkvmerge v47.0.0 ('Black Flag') 64-bit
Writing library : libebml v1.3.10 + libmatroska v1.5.2
Cover : Yes
Attachments : cover.jpg
IMDB : tt0116695
TMDB : movie/9390

Video
ID : 1
Format : HEVC
Format/Info : High Efficiency Video Coding
Format profile : Main [email protected]@Main
HDR format : SMPTE ST 2086, HDR10 compatible
Codec ID : V_MPEGH/ISO/HEVC
Duration : 2 h 18 min
Bit rate : 10.0 Mb/s
Width : 3 840 pixels
Height : 2 160 pixels
Display aspect ratio : 16:9
Frame rate mode : Constant
Frame rate : 23.976 (24000/1001) FPS
Color space : YUV
Chroma subsampling : 4:2:0
Bit depth : 10 bits
Bits/(Pixel*Frame) : 0.050
Stream size : 9.70 GiB (90%)
Title : [WMAN-LorD]
Language : English
Default : Yes
Forced : No
Color range : Limited
Color primaries : BT.2020
Transfer characteristics : PQ
Matrix coefficients : BT.2020 non-constant
Mastering display color pri : Display P3
Mastering display luminance : min: 0.0001 cd/m2, max: 1000 cd/m2
Maximum Content Light Level : 5693 cd/m2
Maximum Frame-Average Light : 643 cd/m2

Audio
ID : 2
Format : AC-3
Format/Info : Audio Coding 3
Commercial name : Dolby Digital
Codec ID : A_AC3
Duration : 2 h 18 min
Bit rate mode : Constant
Bit rate : 640 kb/s
Channel(s) : 6 channels
Channel layout : L R C LFE Ls Rs
Sampling rate : 48.0 kHz
Frame rate : 31.250 FPS (1536 SPF)
Compression mode : Lossy
Stream size : 634 MiB (6%)
Title : Compatibility Track / Dolby Digital Audio / 5.1 / 48 kHz / 640 kbps
Language : English
Service kind : Complete Main
Default : No
Forced : No

Text #1
ID : 3
Format : PGS
Muxing mode : zlib
Codec ID : S_HDMV/PGS
Codec ID/Info : Picture based subtitle format used on BDs/HD-DVDs
Duration : 2 h 12 min
Bit rate : 35.3 kb/s
Count of elements : 3357
Stream size : 33.6 MiB (0%)
Title : Portuguese Brazil
Language : Portuguese
Default : Yes
Forced : No

Text #2
ID : 4
Format : PGS
Muxing mode : zlib
Codec ID : S_HDMV/PGS
Codec ID/Info : Picture based subtitle format used on BDs/HD-DVDs
Duration : 2 h 12 min
Bit rate : 40.6 kb/s
Count of elements : 3539
Stream size : 38.6 MiB (0%)
Title : English
Language : English
Default : No
Forced : No

Text #3
ID : 5
Format : PGS
Muxing mode : zlib
Codec ID : S_HDMV/PGS
Codec ID/Info : Picture based subtitle format used on BDs/HD-DVDs
Duration : 2 h 17 min
Bit rate : 44.4 kb/s
Count of elements : 4123
Stream size : 43.7 MiB (0%)
Title : English (SDH)
Language : English
Default : No
Forced : No

Text #4
ID : 6
Format : PGS
Muxing mode : zlib
Codec ID : S_HDMV/PGS
Codec ID/Info : Picture based subtitle format used on BDs/HD-DVDs
Duration : 2 h 12 min
Bit rate : 18.9 kb/s
Count of elements : 2988
Stream size : 18.0 MiB (0%)
Title : Arabic
Language : Arabic
Default : No
Forced : No

Text #5
ID : 7
Format : PGS
Muxing mode : zlib
Codec ID : S_HDMV/PGS
Codec ID/Info : Picture based subtitle format used on BDs/HD-DVDs
Duration : 2 h 12 min
Bit rate : 47.0 kb/s
Count of elements : 2982
Stream size : 44.7 MiB (0%)
Title : Bulgarian
Language : Bulgarian
Default : No
Forced : No

Text #6
ID : 8
Format : PGS
Muxing mode : zlib
Codec ID : S_HDMV/PGS
Codec ID/Info : Picture based subtitle format used on BDs/HD-DVDs
Duration : 2 h 12 min
Bit rate : 36.0 kb/s
Count of elements : 4244
Stream size : 34.2 MiB (0%)
Title : Chinese (Mandarin Simplified)
Language : Chinese
Default : No
Forced : No

Text #7
ID : 9
Format : PGS
Muxing mode : zlib
Codec ID : S_HDMV/PGS
Codec ID/Info : Picture based subtitle format used on BDs/HD-DVDs
Duration : 2 h 12 min
Bit rate : 28.8 kb/s
Count of elements : 3154
Stream size : 27.3 MiB (0%)
Title : Chinese (Mandarin Traditional)
Language : Chinese
Default : No
Forced : No

Text #8
ID : 10
Format : PGS
Muxing mode : zlib
Codec ID : S_HDMV/PGS
Codec ID/Info : Picture based subtitle format used on BDs/HD-DVDs
Duration : 2 h 12 min
Bit rate : 30.9 kb/s
Count of elements : 2976
Stream size : 29.4 MiB (0%)
Title : Croatian
Language : Croatian
Default : No
Forced : No

Text #9
ID : 11
Format : PGS
Muxing mode : zlib
Codec ID : S_HDMV/PGS
Codec ID/Info : Picture based subtitle format used on BDs/HD-DVDs
Duration : 2 h 12 min
Bit rate : 29.0 kb/s
Count of elements : 2992
Stream size : 27.5 MiB (0%)
Title : Czech
Language : Czech
Default : No
Forced : No

Text #10
ID : 12
Format : PGS
Muxing mode : zlib
Codec ID : S_HDMV/PGS
Codec ID/Info : Picture based subtitle format used on BDs/HD-DVDs
Duration : 2 h 17 min
Bit rate : 27.4 kb/s
Count of elements : 2476
Stream size : 27.0 MiB (0%)
Title : Danish
Language : Danish
Default : No
Forced : No

Text #11
ID : 13
Format : PGS
Muxing mode : zlib
Codec ID : S_HDMV/PGS
Codec ID/Info : Picture based subtitle format used on BDs/HD-DVDs
Duration : 2 h 12 min
Bit rate : 29.2 kb/s
Count of elements : 3030
Stream size : 27.8 MiB (0%)
Title : Dutch
Language : Dutch
Default : No
Forced : No

Text #12
ID : 14
Format : PGS
Muxing mode : zlib
Codec ID : S_HDMV/PGS
Codec ID/Info : Picture based subtitle format used on BDs/HD-DVDs
Duration : 2 h 12 min
Bit rate : 28.2 kb/s
Count of elements : 2509
Stream size : 26.8 MiB (0%)
Title : Finnish
Language : Finnish
Default : No
Forced : No

Text #13
ID : 15
Format : PGS
Muxing mode : zlib
Codec ID : S_HDMV/PGS
Codec ID/Info : Picture based subtitle format used on BDs/HD-DVDs
Duration : 2 h 17 min
Bit rate : 31.2 kb/s
Count of elements : 3034
Stream size : 30.8 MiB (0%)
Title : French
Language : French
Default : No
Forced : No

Text #14
ID : 16
Format : PGS
Muxing mode : zlib
Codec ID : S_HDMV/PGS
Codec ID/Info : Picture based subtitle format used on BDs/HD-DVDs
Duration : 2 h 12 min
Bit rate : 38.8 kb/s
Count of elements : 3194
Stream size : 36.9 MiB (0%)
Title : German
Language : German
Default : No
Forced : No

Text #15
ID : 17
Format : PGS
Muxing mode : zlib
Codec ID : S_HDMV/PGS
Codec ID/Info : Picture based subtitle format used on BDs/HD-DVDs
Duration : 2 h 12 min
Bit rate : 30.7 kb/s
Count of elements : 3009
Stream size : 29.2 MiB (0%)
Title : Greek
Language : Greek
Default : No
Forced : No

Text #16
ID : 18
Format : PGS
Muxing mode : zlib
Codec ID : S_HDMV/PGS
Codec ID/Info : Picture based subtitle format used on BDs/HD-DVDs
Duration : 2 h 12 min
Bit rate : 35.1 kb/s
Count of elements : 2886
Stream size : 33.3 MiB (0%)
Title : Hebrew
Language : Hebrew
Default : No
Forced : No

Text #17
ID : 19
Format : PGS
Muxing mode : zlib
Codec ID : S_HDMV/PGS
Codec ID/Info : Picture based subtitle format used on BDs/HD-DVDs
Duration : 2 h 12 min
Bit rate : 44.4 kb/s
Count of elements : 2980
Stream size : 42.2 MiB (0%)
Title : Hindi
Language : Hindi
Default : No
Forced : No

Text #18
ID : 20
Format : PGS
Muxing mode : zlib
Codec ID : S_HDMV/PGS
Codec ID/Info : Picture based subtitle format used on BDs/HD-DVDs
Duration : 2 h 12 min
Bit rate : 30.8 kb/s
Count of elements : 2987
Stream size : 29.3 MiB (0%)
Title : Hungarian
Language : Hungarian
Default : No
Forced : No

Text #19
ID : 21
Format : PGS
Muxing mode : zlib
Codec ID : S_HDMV/PGS
Codec ID/Info : Picture based subtitle format used on BDs/HD-DVDs
Duration : 2 h 12 min
Bit rate : 35.1 kb/s
Count of elements : 3046
Stream size : 33.4 MiB (0%)
Title : Indonesian
Language : Indonesian
Default : No
Forced : No

Text #20
ID : 22
Format : PGS
Muxing mode : zlib
Codec ID : S_HDMV/PGS
Codec ID/Info : Picture based subtitle format used on BDs/HD-DVDs
Duration : 2 h 12 min
Bit rate : 50.6 kb/s
Count of elements : 2978
Stream size : 48.1 MiB (0%)
Title : Icelandic
Language : Icelandic
Default : No
Forced : No

Text #21
ID : 23
Format : PGS
Muxing mode : zlib
Codec ID : S_HDMV/PGS
Codec ID/Info : Picture based subtitle format used on BDs/HD-DVDs
Duration : 2 h 12 min
Bit rate : 34.2 kb/s
Count of elements : 3276
Stream size : 32.5 MiB (0%)
Title : Italian
Language : Italian
Default : No
Forced : No

Text #22
ID : 24
Format : PGS
Muxing mode : zlib
Codec ID : S_HDMV/PGS
Codec ID/Info : Picture based subtitle format used on BDs/HD-DVDs
Duration : 2 h 12 min
Bit rate : 26.2 kb/s
Count of elements : 3658
Stream size : 24.9 MiB (0%)
Title : Japanese
Language : Japanese
Default : No
Forced : No

Text #23
ID : 25
Format : PGS
Muxing mode : zlib
Codec ID : S_HDMV/PGS
Codec ID/Info : Picture based subtitle format used on BDs/HD-DVDs
Duration : 2 h 12 min
Bit rate : 32.6 kb/s
Count of elements : 3577
Stream size : 31.0 MiB (0%)
Title : Korean
Language : Korean
Default : No
Forced : No

Text #24
ID : 26
Format : PGS
Muxing mode : zlib
Codec ID : S_HDMV/PGS
Codec ID/Info : Picture based subtitle format used on BDs/HD-DVDs
Duration : 2 h 12 min
Bit rate : 27.8 kb/s
Count of elements : 2510
Stream size : 26.4 MiB (0%)
Title : Norwegian
Language : Norwegian
Default : No
Forced : No

Text #25
ID : 27
Format : PGS
Muxing mode : zlib
Codec ID : S_HDMV/PGS
Codec ID/Info : Picture based subtitle format used on BDs/HD-DVDs
Duration : 2 h 12 min
Bit rate : 30.4 kb/s
Count of elements : 2983
Stream size : 28.9 MiB (0%)
Title : Polish
Language : Polish
Default : No
Forced : No

Text #26
ID : 28
Format : PGS
Muxing mode : zlib
Codec ID : S_HDMV/PGS
Codec ID/Info : Picture based subtitle format used on BDs/HD-DVDs
Duration : 2 h 12 min
Bit rate : 32.6 kb/s
Count of elements : 2986
Stream size : 31.0 MiB (0%)
Title : Portuguese (Iberian)
Language : Portuguese
Default : No
Forced : No

Text #27
ID : 29
Format : PGS
Muxing mode : zlib
Codec ID : S_HDMV/PGS
Codec ID/Info : Picture based subtitle format used on BDs/HD-DVDs
Duration : 2 h 12 min
Bit rate : 34.2 kb/s
Count of elements : 2991
Stream size : 32.5 MiB (0%)
Title : Romanian
Language : Romanian
Default : No
Forced : No

Text #28
ID : 30
Format : PGS
Muxing mode : zlib
Codec ID : S_HDMV/PGS
Codec ID/Info : Picture based subtitle format used on BDs/HD-DVDs
Duration : 2 h 12 min
Bit rate : 37.2 kb/s
Count of elements : 3307
Stream size : 35.4 MiB (0%)
Title : Russian
Language : Russian
Default : No
Forced : No

Text #29
ID : 31
Format : PGS
Muxing mode : zlib
Codec ID : S_HDMV/PGS
Codec ID/Info : Picture based subtitle format used on BDs/HD-DVDs
Duration : 2 h 12 min
Bit rate : 44.0 kb/s
Count of elements : 4481
Stream size : 41.9 MiB (0%)
Title : Slovak
Language : Slovak
Default : No
Forced : No

Text #30
ID : 32
Format : PGS
Muxing mode : zlib
Codec ID : S_HDMV/PGS
Codec ID/Info : Picture based subtitle format used on BDs/HD-DVDs
Duration : 2 h 12 min
Bit rate : 28.1 kb/s
Count of elements : 2975
Stream size : 26.7 MiB (0%)
Title : Slovenian
Language : Slovenian
Default : No
Forced : No

Text #31
ID : 33
Format : PGS
Muxing mode : zlib
Codec ID : S_HDMV/PGS
Codec ID/Info : Picture based subtitle format used on BDs/HD-DVDs
Duration : 2 h 12 min
Bit rate : 30.4 kb/s
Count of elements : 2972
Stream size : 28.9 MiB (0%)
Title : Spanish (Castilian)
Language : Spanish
Default : No
Forced : No

Text #32
ID : 34
Format : PGS
Muxing mode : zlib
Codec ID : S_HDMV/PGS
Codec ID/Info : Picture based subtitle format used on BDs/HD-DVDs
Duration : 2 h 12 min
Bit rate : 36.6 kb/s
Count of elements : 4123
Stream size : 34.8 MiB (0%)
Title : Spanish (Latin American)
Language : Spanish
Default : No
Forced : No

Text #33
ID : 35
Format : PGS
Muxing mode : zlib
Codec ID : S_HDMV/PGS
Codec ID/Info : Picture based subtitle format used on BDs/HD-DVDs
Duration : 2 h 12 min
Bit rate : 24.2 kb/s
Count of elements : 2309
Stream size : 23.0 MiB (0%)
Title : Swedish
Language : Swedish
Default : No
Forced : No

Text #34
ID : 36
Format : PGS
Muxing mode : zlib
Codec ID : S_HDMV/PGS
Codec ID/Info : Picture based subtitle format used on BDs/HD-DVDs
Duration : 2 h 12 min
Bit rate : 35.4 kb/s
Count of elements : 3521
Stream size : 33.7 MiB (0%)
Title : Thai
Language : Thai
Default : No
Forced : No

Text #35
ID : 37
Format : PGS
Muxing mode : zlib
Codec ID : S_HDMV/PGS
Codec ID/Info : Picture based subtitle format used on BDs/HD-DVDs
Duration : 2 h 12 min
Bit rate : 34.1 kb/s
Count of elements : 2972
Stream size : 32.4 MiB (0%)
Title : Turkish
Language : Turkish
Default : No
Forced : No

Menu
00:00:00.000 : en:Chapter 1
00:12:44.806 : en:Chapter 2
00:20:46.203 : en:Chapter 3
00:29:14.336 : en:Chapter 4
00:36:32.524 : en:Chapter 5
00:44:46.142 : en:Chapter 6
00:59:38.283 : en:Chapter 7
01:06:39.871 : en:Chapter 8
01:18:15.524 : en:Chapter 9
01:28:05.906 : en:Chapter 10
01:34:01.427 : en:Chapter 11
01:37:51.324 : en:Chapter 12
01:45:43.629 : en:Chapter 13
01:55:45.939 : en:Chapter 14
02:01:03.798 : en:Chapter 15
02:10:15.391 : en:Chapter 16










Trackers List

Tracker Name
udp://tracker.leechers-paradise.org:6969/announce
udp://9.rarbg.to:2710/announce
udp://exodus.desync.com:6969/announce
udp://tracker.uw0.xyz:6969/announce
udp://open.stealth.si:80/announce
udp://tracker.tiny-vps.com:6969/announce
udp://open.demonii.si:1337/announce
udp://p4p.arenabg.com:1337/announce
udp://tracker.torrent.eu.org:451/announce
udp://tracker.kamigami.org:2710/announce
udp://xxxtor.com:2710/announce
udp://opentracker.i2p.rocks:6969/announce
udp://tracker.zerobytes.xyz:1337/announce
udp://chihaya.de:6969/announce
udp://tracker.coppersurfer.tk:6969/announce

Torrent File Content

Jerry Maguire (1996) [2160p] [HDR] (bluray) [WMAN-LorD]
  • Jerry.Maguire.1996.2160p.UHD.HDR.BluRay.x265.10bit.DD5.1.[WMAN-LorD].mkv (10.8 GB)
  • [TGx]Downloaded from torrentgalaxy.to .txt (0.6 KB)


Latest Searches