Jerry Garcia and John Kahn, The Ritz, NYC, NY 1986, January 28 SBD Tagged Flac16


    Seeders : 0      Leechers : 0

Downloads : 46
Language : English
tag : Jerry Garcia,John Kahn,The Ritz, NYC,1986,flac,




Description

Garcia and Kahn
The Ritz, New York City, NY
01/28/86

I used a 80 minute CD to be on the safe side

Set One: (6 songs - 30 minutes)
01. It Takes A Lot To Laugh It Takes A Train To Cry 06:55
02. Dire Wolf 03:34
03. I've Been All Around This World 05:36
04. Spike Driver Blues 05:26
05. Jack-A-Roe 04:21
06. Run For The Roses 04:27

Set Two: (6 songs - 38 minutes)
07. Deep Elem Blues 08:20
08. Oh Babe It Ain't No Lie 05:26
09. Little Sadie 05:31
10. Gomorrah 05:48
11. Bird Song 09:04
12. Ripple 04:02
Encore: (6 minutes)
13. Goodnight Irene 05:54

Master Soundboard
Soundcraftsman 16x4>Sony D5>Cool Edit>CD Wave>SHN>TLH>FLAC8

From Dan Cole's collection of JGB cassettes - he had it listed as
Master Soundboard and was using a Sony D5 recorder at the time. I recorded
directly from his master tape to my computer using Cool Edit, divided the tracks
using CD Wave and then converted to SHN before recording my copy onto cd.

Dan had this to say about recording this show "Garcia and Kahn, The
Ritz 1/27-28/86, An old buddy of mine from college was living in New York City and was
employed as the light man at the Palladium. He knew the soundman at the Ritz and had
my tape deck hooked into the soundboard before I could even score a ticket. They
also had a killer video feed going on, but they wouldn't allow me to patch in with the
portable VCR I had brought with me."


Jerry Garcia & John Kahn

Distribution info:
Etree - no hits
Phishhook - 6 hits (2 cd/4 analog) but source is listed as sbd>??>CDR

Some distribution but not much.

------- Jerry Site Info --------
01/28/86 The Ritz, New York City, NY top
Set One: (6 songs - 30 minutes)
It Takes A Lot To Laugh It Takes A Train To Cry 5:12
Dire Wolf 3:09
I've Been All Around This World 4:40
Spike Driver Blues 4:49
Jack-A-Roe 3:57
Run For The Roses 3:53
Set Two: (6 songs - 38 minutes)
Deep Elem Blues 6:25
Oh Babe It Ain't No Lie 4:52
Little Sadie 4:57
Gomorrah 5:19
Bird Song 8:16
Ripple 3:40

Encore: (6 minutes)
Goodnight Irene 5:03

Comments: Garcia & Kahn.
Recordings: 74 SBD, 74 AUD
Contributors: Ryan Shriver

590a2ed47fa77d68d64c295237c9035b *jgb86-01-28t01.shn
138751470a11f34f291a87c1ef144d2e *jgb86-01-28t02.shn
fefaedf9cb88dc4ec67c2394c6e7da81 *jgb86-01-28t03.shn
3145643708e76293ebfcc9ca6131d493 *jgb86-01-28t04.shn
0636b9b4283c3dbe0b3a71fc14136edc *jgb86-01-28t05.shn
514414e0213aa597bdaf5d3a9a75e82b *jgb86-01-28t06.shn
e49e25ef0d098b623f39564734b48d10 *jgb86-01-28t07.shn
a7b27d16e99d63ec3ae646e22cce8b4a *jgb86-01-28t08.shn
aaa05da0ba658418ca7bfd1748944db7 *jgb86-01-28t09.shn
5788154a347e0e67183e11db6620ddc9 *jgb86-01-28t10.shn
92dbaec7a82cd755dd305edda7f20a5d *jgb86-01-28t11.shn
60002862ee84bf75fe625b3d18e103ee *jgb86-01-28t12.shn
12a3c0d939338a0c4346ea33acc6a868 *jgb86-01-28t13.shn

length expanded size cdr WAVE problems filename
6:55.16 73243676 --- -- ---xx jg+jk86-01-28t01.shn
3:34.54 37876652 --- -- ---xx jg+jk86-01-28t02.shn
5:36.53 59395100 --- -- ---xx jg+jk86-01-28t03.shn
5:26.55 57635804 --- -- ---xx jg+jk86-01-28t04.shn
4:21.47 46150988 --- -- ---xx jg+jk86-01-28t05.shn
4:27.65 47251724 --- -- ---xx jg+jk86-01-28t06.shn
8:20.54 88327052 --- -- ---xx jg+jk86-01-28t07.shn
5:26.21 57555836 --- -- ---xx jg+jk86-01-28t08.shn
5:31.17 58428428 --- -- ---xx jg+jk86-01-28t09.shn
5:48.53 61511900 --- -- ---xx jg+jk86-01-28t10.shn
9:04.23 96015740 --- -- ---xx jg+jk86-01-28t11.shn
4:02.67 42846428 --- -- ---xx jg+jk86-01-28t12.shn
5:54.57 62579708 --- -- ---xx jg+jk86-01-28t13.shn
74:31.57 788819036 B (totals for 13 files, 0.5226 overall compression ratio)

5a466bab889f9107bb8ed7c2903fe8b2 *jgb86-01-28t01.flac
e67c9a4ca6dd0129a90a67e2b428bdde *jgb86-01-28t02.flac
d039f7e4ccbdb6ea086e6e72c82f0766 *jgb86-01-28t03.flac
f2fac9e2464e657f9d3d7b69d76789e6 *jgb86-01-28t04.flac
f95097b2034793ec9aec57668913d5f6 *jgb86-01-28t05.flac
cfcf2c546a00d331c2192be66c3b8d69 *jgb86-01-28t06.flac
b517f11c519bc4ecb9ecde1c52ae2b2a *jgb86-01-28t07.flac
e5f0c47f84b46aa0a4dcdb07b410ef36 *jgb86-01-28t08.flac
c962f59279e5113fd9f2ee32e9b4053d *jgb86-01-28t09.flac
4ec2e064f8ac5d8a7ad6582af7ddf822 *jgb86-01-28t10.flac
ce525fee6446afd3002013cd70a7b75d *jgb86-01-28t11.flac
6059a11717aa37540d5bd4af73b916fc *jgb86-01-28t12.flac
2766e2799c9065984f3c1e315d34365e *jgb86-01-28t13.flac

length expanded size cdr WAVE problems fmt ratio filename
6:55.16 73243676 B --- -- ---xx flac 0.4805 jgb86-01-28t01.flac
3:34.54 37876652 B --- -- ---xx flac 0.4894 jgb86-01-28t02.flac
5:36.53 59395100 B --- -- ---xx flac 0.4537 jgb86-01-28t03.flac
5:26.55 57635804 B --- -- ---xx flac 0.4405 jgb86-01-28t04.flac
4:21.47 46150988 B --- -- ---xx flac 0.4869 jgb86-01-28t05.flac
4:27.65 47251724 B --- -- ---xx flac 0.5163 jgb86-01-28t06.flac
8:20.54 88327052 B --- -- ---xx flac 0.5015 jgb86-01-28t07.flac
5:26.21 57555836 B --- -- ---xx flac 0.4532 jgb86-01-28t08.flac
5:31.17 58428428 B --- -- ---xx flac 0.4705 jgb86-01-28t09.flac
5:48.53 61511900 B --- -- ---xx flac 0.4924 jgb86-01-28t10.flac
9:04.23 96015740 B --- -- ---xx flac 0.5035 jgb86-01-28t11.flac
4:02.67 42846428 B --- -- ---xx flac 0.5018 jgb86-01-28t12.flac
5:54.57 62579708 B --- -- ---xx flac 0.5204 jgb86-01-28t13.flac
74:31.57 788819036 B 0.4862 (13 files)


Trackers List

Tracker Name
udp://tracker.leechers-paradise.org:6969/announce
udp://tracker.coppersurfer.tk:6969/announce
udp://tracker.opentrackr.org:1337/announce
udp://tracker.zer0day.to:1337/announce
udp://eddie4.nl:6969/announce

Torrent File Content

jg86-01-28.jgjk.sbd.cole.004385.sbeok.t-flac16
  • jgb86-01-28.004385.ffp (0.7 KB)
  • jgb86-01-28.004385.jpg (120.4 KB)
  • jgb86-01-28.004385.m3u (0.3 KB)
  • jgb86-01-28.004385.st5 (0.8 KB)
  • jgb86-01-28.004385.txt (5.9 KB)
  • jgb86-01-28t01.flac (33.6 MB)
  • jgb86-01-28t02.flac (17.7 MB)
  • jgb86-01-28t03.flac (25.7 MB)
  • jgb86-01-28t04.flac (24.2 MB)
  • jgb86-01-28t05.flac (21.4 MB)
  • jgb86-01-28t06.flac (23.3 MB)
  • jgb86-01-28t07.flac (42.2 MB)
  • jgb86-01-28t08.flac (24.9 MB)
  • jgb86-01-28t09.flac (26.2 MB)
  • jgb86-01-28t10.flac (28.9 MB)
  • jgb86-01-28t11.flac (46.1 MB)
  • jgb86-01-28t12.flac (20.5 MB)
  • jgb86-01-28t13.flac (31.1 MB)


Latest Searches