Jerry Garcia and John Kahn, The Ritz, NYC, NY 1986, January 27 SBD Tagged Flac16


    Seeders : 4      Leechers : 0

Downloads : 71
Language : English
tag : Jerry Garcia,John Kahn,The Ritz, NYC,1986,flac,




Description

Garcia and Kahn
The Ritz,
New York City, NY
January 27, 1986

Set One:  (6 songs - 32 minutes)

01. Deep Elem Blues 05:36
02. Little Sadie 04:31
03. Friend Of The Devil 06:25
04. Oh Babe It Ain't No Lie 05:26
05. When I Paint My Masterpiece 05:43
06. Run For The Roses 04:27

Set Two:   (5 songs - 31 minutes)
07. Dire Wolf 04:28
08. Simple Twist Of Fate 08:26
09. Spike Driver Blues 04:07
10. Bird Song 09:17
11. Ripple 04:11
Encore:  (8 minutes)
12. Goodnight Irene 07:27

Master Soundboard

Soundcraftsman 16x4>Sony D5>Cool Edit>CD Wave>SHN>TLH>FLAC8

From Dan Cole's collection of JGB cassettes - he had it listed as

Master Soundboard and was using a Sony D5 recorder at the

time. I recorded directly from his master tape to my computer using

Cool Edit, divided the tracks using CD Wave and then converted

to SHN before recording my copy onto cd.

Dan had this to say about recording this show

"Garcia and Kahn,  The Ritz  1/27-28/86,  

An old buddy of mine from college was living in New York City

and was employed as the light man at the Palladium.  

He knew the soundman at the Ritz and had my tape deck hooked into

the soundboard before I could even score a ticket.  They also had a

killer video feed going on, but they wouldn't allow me to patch in

with the portable VCR I had brought with me."

Garcia & Kahn. Jerry Garcia, Gloria Jones, John Kahn, Gaylord Birch, Jaclyn LaBranch, Melvin Seals

   length     expanded size   cdr  WAVE problems filename
    5:36.17       59310428    ---   --   ---xx   jgb86-01-27t01.shn
    4:31.53       47929100    ---   --   ---xx   jgb86-01-27t02.shn
    6:25.59       68052812    ---   --   ---xx   jgb86-01-27t03.shn
    5:26.58       57642860    ---   --   ---xx   jgb86-01-27t04.shn
    5:43.17       60545228    ---   --   ---xx   jgb86-01-27t05.shn
    4:27.19       47143532    ---   --   ---xx   jgb86-01-27t06.shn
    4:28.01       47277596    ---   --   ---xx   jgb86-01-27t07.shn
    8:26.15       89293724    ---   --   ---xx   jgb86-01-27t08.shn
    4:07.64       43721372    ---   --   ---xx   jgb86-01-27t09.shn
    9:17.24       98311292    ---   --   ---xx   jgb86-01-27t10.shn
    4:11.04       44285852    ---   --   ---xx   jgb86-01-27t11.shn
    7:27.40       78944036    -b-   --   ---xx   jgb86-01-27t12.shn
   70:08.71      742457832 B                     (totals for 12 files, 0.5158 overall compression ratio)

a47fa832b9f49768964211a8f002797e *jgb86-01-27t01.shn
09e7a06f29a37ffa6f3ab5bb2424b7f0 *jgb86-01-27t02.shn
af55eb4bf75db689f2ff5acf24aa15c8 *jgb86-01-27t03.shn
fca0527f755ceb3fe5a262489e095b97 *jgb86-01-27t04.shn
038cb669842b6fbdcb13d97fb864f3ae *jgb86-01-27t05.shn
406420d757cc1d59e889e3cc6a1ea784 *jgb86-01-27t06.shn
8173c17b16cf9b6244ebf8722d88d4af *jgb86-01-27t07.shn
51e2742fd8ced21a4dd83895f94a068e *jgb86-01-27t08.shn
588a697c7629a94eb5b419a6f26a7a9e *jgb86-01-27t09.shn
aa63b1f45b853899d3013f406325fc47 *jgb86-01-27t10.shn
52dcd21853f2338fe69919e5363ed05a *jgb86-01-27t11.shn
97a21b70bf396a92896e87f55be0c7f3 *jgb86-01-27t12.shn

   length     expanded size    cdr  WAVE problems  fmt   ratio  filename
    5:36.17       59310428 B   ---   --   ---xx   flac  0.5057  jgb86-01-27t01.flac
    4:31.53       47929100 B   ---   --   ---xx   flac  0.4663  jgb86-01-27t02.flac
    6:25.59       68052812 B   ---   --   ---xx   flac  0.4815  jgb86-01-27t03.flac
    5:26.58       57642860 B   ---   --   ---xx   flac  0.4530  jgb86-01-27t04.flac
    5:43.17       60545228 B   ---   --   ---xx   flac  0.5120  jgb86-01-27t05.flac
    4:27.19       47143532 B   ---   --   ---xx   flac  0.4950  jgb86-01-27t06.flac
    4:28.01       47277596 B   ---   --   ---xx   flac  0.4827  jgb86-01-27t07.flac
    8:26.15       89293724 B   ---   --   ---xx   flac  0.4624  jgb86-01-27t08.flac
    4:07.64       43721372 B   ---   --   ---xx   flac  0.4480  jgb86-01-27t09.flac
    9:17.24       98311292 B   ---   --   ---xx   flac  0.4912  jgb86-01-27t10.flac
    4:11.04       44285852 B   ---   --   ---xx   flac  0.4990  jgb86-01-27t11.flac
    7:27.40       78944036 B   -b-   --   ---xx   flac  0.5081  jgb86-01-27t12.flac
   70:08.71      742457832 B                            0.4846  (12 files)

8a6cdd7f7fdf073ba91d0db31c7f4980 *jgb86-01-27t01.flac
6c36b2ffb47c7f6226eb6bc34b34b476 *jgb86-01-27t02.flac
f6fba1da4a4275e26688a8afa07a107f *jgb86-01-27t03.flac
b3e43f289267547d217c9c2e6ee624f1 *jgb86-01-27t04.flac
47f52dc6368f1fb4b882067a610ec11a *jgb86-01-27t05.flac
3af2eebde50419e9f02f195e4ae461cd *jgb86-01-27t06.flac
a8c39d96735899fd4a85a7431d99521e *jgb86-01-27t07.flac
574754b0b4dfeeb8c1e764e7ec4feb93 *jgb86-01-27t08.flac
a8c683ac5f2c12a430531f05ed4f3944 *jgb86-01-27t09.flac
3ea2302b5273474a09e3666c643d2800 *jgb86-01-27t10.flac
7d4af42afc515fb757728d81cb99b3e4 *jgb86-01-27t11.flac
d84dd503be92dae3cf97b8a0d1793bff *jgb86-01-27t12.flac


Trackers List

Tracker Name
udp://tracker.leechers-paradise.org:6969/announce
udp://tracker.coppersurfer.tk:6969/announce
udp://tracker.opentrackr.org:1337/announce
udp://tracker.zer0day.to:1337/announce
udp://eddie4.nl:6969/announce

Torrent File Content

jg86-01-27.jgjk.sbd.cole.004386.sbeok.t-flac16
  • jgb86-01-27.004386.m3u (0.2 KB)
  • jgb86-01-27.004386.txt (4.9 KB)
  • jgb86-01-27t01.flac (28.6 MB)
  • jgb86-01-27t02.flac (21.3 MB)
  • jgb86-01-27t03.flac (31.2 MB)
  • jgb86-01-27t04.flac (24.9 MB)
  • jgb86-01-27t05.flac (29.6 MB)
  • jgb86-01-27t06.flac (22.3 MB)
  • jgb86-01-27t07.flac (21.8 MB)
  • jgb86-01-27t08.flac (39.4 MB)
  • jgb86-01-27t09.flac (18.7 MB)
  • jgb86-01-27t10.flac (46.1 MB)
  • jgb86-01-27t11.flac (21.1 MB)
  • jgb86-01-27t12.flac (38.3 MB)


Latest Searches