Island (BD720p_HEVC_SmoodFlamez)


    Seeders : 9      Leechers : 3

Downloads : 35
Language : Japanese
tag : Drama,Sci-Fi,Thriller,




Description

Title
Island
[![7-Menu.jpg](https://imgsaver.com/images/2020/09/07/7-Menu.jpg)](https://imgsaver.com/image/5SpoO)
Source
DmonHiro


Synopsis
Urashima, an island far from the mainland. The people who live there lead carefree lives. But five years ago, the island's three great families suffered a series of misfortunes and succumbed to suspicion. The people of the island cut off all contact with the mainland and began a slow decline. The key to saving the island lies in three girls who belong to the three families. But they are bound by old traditions, and are conflicted. On that island, a lone man washes ashore. The man claims to be from the future, and he begins a solitary struggle to change the island's fate.

Information
Type: TV
Episodes: 12
Status: Finished Airing
Aired: Jul 1, 2018 to Sep 16, 2018
Premiered: Summer 2018
Broadcast: Sundays at 22:00 (JST)
Producers: Crunchyroll SC Anime Fund
Licensors: Funimation
Studios: feel.
Source: Visual novel
Genres: Drama, Sci-Fi
Duration: 23 min. per ep.
Rating: PG-13 - Teens 13 or older

Video
ID : 1
Format : HEVC
Format/Info : High Efficiency Video Coding
Format profile : Main [email protected]@High
Codec ID : V_MPEGH/ISO/HEVC
Duration : 23 min 40 s
Bit rate : 481 kb/s
Width : 1 280 pixels
Height : 720 pixels
Display aspect ratio : 16:9
Frame rate mode : Constant
Frame rate : 23.976 (24000/1001) FPS
Color space : YUV
Chroma subsampling : 4:2:0
Bit depth : 10 bits

Audio
ID : 2
Format : AAC LC SBR
Format/Info : Advanced Audio Codec Low Complexity with Spectral Band Replication
Commercial name : HE-AAC
Format settings : Explicit
Codec ID : A_AAC-2
Duration : 23 min 39 s
Bit rate : 80.0 kb/s
Channel(s) : 2 channels
Channel layout : L R
Sampling rate : 96.0 kHz
Frame rate : 46.875 FPS (2048 SPF)
Compression mode : Lossy
Delay relative to video : 5 ms
Stream size : 13.5 MiB (14%)
Language : Japanese
Default : Yes
Forced : No

Text
ID : 3
Format : ASS
Codec ID : S_TEXT/ASS
Codec ID/Info : Advanced Sub Station Alpha
Duration : 23 min 38 s
Bit rate : 135 b/s
Count of elements : 362
Compression mode : Lossless
Stream size : 23.4 KiB (0%)
Default : No
Forced : Yes


================================================================================
Ss
[![2020-09-07_165130.png](https://imgsaver.com/images/2020/09/07/2020-09-07_165130.png)](https://imgsaver.com/image/5SIXe)
[![2020-09-07_165153.png](https://imgsaver.com/images/2020/09/07/2020-09-07_165153.png)](https://imgsaver.com/image/5SRAm)

Personally I loved this series and would have loved another season but sadly that wont happen


Trackers List

Tracker Name
http://nyaa.tracker.wf:7777/announce
UDP://TRACKER.ZER0DAY.TO:1337/ANNOUNCE
UDP://EDDIE4.NL:6969/ANNOUNCE
udp://tracker.opentrackr.org:1337/announce

Torrent File Content

Island (BD720p_HEVC_SmoodFlamez)
  • 01 - We Meet Again.mkv (88.1 MB)
  • 02 - I Don't Want You To Feel Bad.mkv (95.3 MB)
  • 03 - The Right Way To Spin Dreams.mkv (97.6 MB)
  • 04 - This World Is Full Of Secrets.mkv (125.8 MB)
  • 05 - That's Why I Trust You.mkv (118.9 MB)
  • 06 - As Long As You Are There.mkv (97.4 MB)
  • 07 - I Want To Keep Linking You.mkv (174.4 MB)
  • 08 - Love Me When We Meet Again.mkv (92.1 MB)
  • 09 - I Got To See You Again.mkv (96.3 MB)
  • 10 - I Don't Want To Grieve Anymore.mkv (86.6 MB)
  • 11 - We've Met Again, But Who Are You....mkv (99.7 MB)
  • 12 - Holding Hands To Tomorrow.mkv (85.0 MB)
  • Bluray Scans Volume 1
    • 1-Front-Cover.jpg (21.3 MB)
    • 2-Rear-Cover.jpg (21.9 MB)
    • 3-Full-Cover.jpg (43.2 MB)
    • 4-Label.jpg (19.8 MB)
    • 5-Bonus.jpg (7.3 MB)
    • 6-Bluray.jpg (7.4 MB)
    • 7-Menu.jpg (391.4 KB)
    Volume 2
    • 1 Front Cover.webp (16.4 MB)
    • 2 Rear Cover.webp (15.9 MB)
    • 3 Full Cover.webp (33.8 MB)
    • 4 Label.webp (13.4 MB)
    • 5 Bonus.webp (4.6 MB)
    • 6 Bluray.webp (5.0 MB)
    • 7 Menu.webp (244.3 KB)
    Screenshots
    • 2020-09-07_165037.png (1.1 MB)
    • 2020-09-07_165130.png (1.0 MB)
    • 2020-09-07_165153.png (1.3 MB)
    • 2020-09-07_165210.png (1.4 MB)


Latest Searches