Invasion of the Body Snatchers - Terrore dallo spazio profondo (1978).720p.H264.ita.eng.Ac3.sub.ita.eng-MIRCrew


    Seeders : 13      Leechers : 4

Downloads : 99
Language : English




Description

Invasion of the Body Snatchers - Terrore dallo spazio profondo (1978).720p.H264.ita.eng.Ac3.sub.ita.eng-MIRCrew


NO FOUND ONLY ORIGINAL RELEASE

My release is always in double track audio italian and Original audio
for select it use VLC or dvd player home
not use wmp

Terrore dallo spazio profondo - Invasion of the Body Snatchers (1978)

Quality MIRCrew on HD 720p da 1,8 gb









Titolo originale Invasion of the Body Snatchers
Paese di produzione Stati Uniti d'America
Anno 1978
Durata 115 min
Genere fantascienza, orrore, thriller
Regia Philip Kaufman
Soggetto Jack Finney
Sceneggiatura W. D. Richter



Donald Sutherland: Matthew Bennell
Leonard Nimoy: Dr. David Kibner
Jeff Goldblum: Jack Bellicec
Brooke Adams: Elizabeth Driscoll
Veronica Cartwright: Nancy Bellicec
Lelia Goldoni: Katherine Hendley
Kevin McCarthy: uomo paranoico sulla strada
Robert Duvall: prete sull'altalena
Don Siegel: tassista



Nelle immensità dello spazio profondo una razza di creature gelatinose abbandona il proprio pianeta morente e attraverso il vento solare raggiunge la Terra atterrando a San Francisco. La maggior parte degli alieni cade su delle piante, assumendo così la forma di piccoli baccelli con dei fiori rosa. Elizabeth Driscoll, una dipendente presso il dipartimento sanitario di San Francisco, è una delle numerose persone che portano i fiori alieni in casa.



When strange seeds drift to earth from space, mysterious pods begin to grow and invade San Francisco, California, where they replicate the residents into emotionless automatons one body at a time. .














General

Complete name : Terrore dallo spazio profondo - Invasion of the Body Snatchers (1978).720p.h264.ita.eng.sub.ita.eng-MIRCrew\Terrore dallo spazio profondo - Invasion of the Body Snatchers (1978).720p.h264.ita.eng.sub.ita.eng-MIRCrew.mkv
Format : Matroska
Format version : Version 2
File size : 1.84 GiB
Duration : 1h 55mn
Overall bit rate : 2 283 Kbps
Movie name : MIRCrew
Encoded date : UTC 2020-06-21 16:02:29
Writing application : mkvmerge v5.8.0 ('No Sleep / Pillow') built on Sep 2 2012 15:37:04
Writing library : Lavf54.63.100
ARTIST : robbyrs
COMMENT : MIRCrew
COPYRIGHT : MIRCrew

Video
ID : 1
Format : AVC
Format/Info : Advanced Video Codec
Format profile : [email protected]
Format settings, CABAC : Yes
Format settings, ReFrames : 2 frames
Codec ID : V_MPEG4/ISO/AVC
Duration : 1h 55mn
Bit rate : 1 900 Kbps
Width : 1 280 pixels
Height : 688 pixels
Display aspect ratio : 16:9
Frame rate mode : Variable
Frame rate : 23.976 fps
Color space : YUV
Chroma subsampling : 4:2:0
Bit depth : 8 bits
Scan type : Progressive
Bits/(Pixel*Frame) : 0.090
Stream size : 1.49 GiB (81%)
Title : MIRCrew
Writing library : x264 core 130 r2273
Encoding settings : cabac=1 / ref=2 / deblock=1:-1:-1 / analyse=0x1:0x131 / me=hex / subme=7 / psy=1 / psy_rd=1.00:0.10 / mixed_ref=0 / me_range=16 / chroma_me=1 / trellis=1 / 8x8dct=0 / cqm=0 / deadzone=21,11 / fast_pskip=1 / chroma_qp_offset=-3 / threads=9 / lookahead_threads=1 / sliced_threads=0 / nr=0 / decimate=1 / interlaced=0 / bluray_compat=0 / constrained_intra=0 / bframes=3 / b_pyramid=0 / b_adapt=1 / b_bias=0 / direct=3 / weightb=1 / open_gop=0 / weightp=2 / keyint=230 / keyint_min=23 / scenecut=40 / intra_refresh=0 / rc_lookahead=40 / rc=abr / mbtree=1 / bitrate=1900 / ratetol=1.0 / qcomp=0.60 / qpmin=10 / qpmax=69 / qpstep=4 / vbv_maxrate=24000 / vbv_bufsize=24000 / nal_hrd=none / ip_ratio=1.40 / aq=1:1.00
Default : Yes
Forced : No

Audio #1
ID : 2
Format : AC-3
Format/Info : Audio Coding 3
Mode extension : CM (complete main)
Codec ID : A_AC3
Duration : 1h 55mn
Bit rate mode : Constant
Bit rate : 192 Kbps
Channel(s) : 2 channels
Channel positions : Front: L R
Sampling rate : 48.0 KHz
Bit depth : 16 bits
Compression mode : Lossy
Delay relative to video : -5ms
Stream size : 158 MiB (8%)
Title : Ita Ac3
Language : Italian
Default : Yes
Forced : No

Audio #2
ID : 3
Format : AC-3
Format/Info : Audio Coding 3
Mode extension : CM (complete main)
Codec ID : A_AC3
Duration : 1h 55mn
Bit rate mode : Constant
Bit rate : 192 Kbps
Channel(s) : 2 channels
Channel positions : Front: L R
Sampling rate : 48.0 KHz
Bit depth : 16 bits
Compression mode : Lossy
Delay relative to video : -5ms
Stream size : 158 MiB (8%)
Title : Eng Ac3
Language : English
Default : No
Forced : No

Menu
00:00:00.000 : :00:00:00.000
00:09:58.973 : :00:09:58.848
00:18:46.876 : :00:18:46.709
00:28:34.213 : :00:28:34.087
00:36:22.472 : :00:36:22.472
00:46:59.108 : :00:46:59.108
00:57:18.268 : :00:57:18.268
01:04:56.101 : :01:04:56.101
01:16:07.980 : :01:16:07.813
01:26:35.732 : :01:26:35.607
01:38:35.785 : :01:38:35.576
01:51:00.821 : :01:51:00.821






Trackers List

Tracker Name
udp://tracker.torrent.eu.org:451/announce
udp://tracker.leechers-paradise.org:6969/announce
udp://tracker.cyberia.is:6969/announce
udp://tracker.iamhansen.xyz:2000/announce
udp://p4p.arenabg.com:1337/announce
udp://explodie.org:6969/announce
udp://tracker.opentrackr.org:1337/announce
udp://tracker.tiny-vps.com:6969/announce
udp://exodus.desync.com:6969/announce
udp://retracker.akado-ural.ru:80/announce
udp://tracker.moeking.me:6969/announce
udp://ipv4.tracker.harry.lu:80/announce
udp://open.stealth.si:80/announce
udp://9.rarbg.to:2710/announce
udp://opentor.org:2710/announce

Torrent File Content

Terrore dallo spazio profondo - Invasion of the Body Snatchers (1978).720p.h264.ita.eng.sub.ita.eng-MIRCrew
  • Terrore dallo spazio profondo - Invasion of the Body Snatchers (1978).720p.h264.ita.eng.sub.ita.eng-MIRCrew.eng.srt (77.2 KB)
  • Terrore dallo spazio profondo - Invasion of the Body Snatchers (1978).720p.h264.ita.eng.sub.ita.eng-MIRCrew.ita.srt (76.1 KB)
  • Terrore dallo spazio profondo - Invasion of the Body Snatchers (1978).720p.h264.ita.eng.sub.ita.eng-MIRCrew.mkv (1.8 GB)


Latest Searches