Hunter x Hunter: Phantom Rouge (2013) [1080p x265 HEVC 10bit BluRay Dual Audio AAC 5.1] [Prof]


    Seeders : 20      Leechers : 3

Downloads : 109
Language : English




Description



Hunter x Hunter Movie 1: Phantom Rouge

Synopsis

After completing their work at Yorknew City, Leorio Paladiknight and Kurapika investigate the rumored sightings of a boy with scarlet red eyes, as they believe this person to be a member of the now non-existent Kurta Clan. Kurapika hopes to find another survivor of the clan besides himself, but instead ends up losing both his eyes after an attack from someone who seems to be his childhood friend.

Leorio tends to Kurapika's wounds, and then sends for both Gon Freecss and Killua Zoldyck to help retrieve Kurapika's eyeballs. However, their search brings them face-to-face with the infamous group of thieves known as Phantom Troupe—the same people who massacred the entire Kurta Clan five years ago for their scarlet eyes, which change color during moments of rage.

Hunter x Hunter Movie 1: Phantom Rouge follows the boys' quest to locate their friend's eyes and catch the thief, causing them to delve deep into Phantom Troupe's past. And in doing so, they encounter a mysterious girl who appears to be linked to it all…

[Written by MAL Rewrite]

Alternative Titles

Synonyms: Gekijouban Hunter x Hunter: Hiiro no Genei, HxH Movie
Japanese: 劇場版 HUNTER×HUNTER 緋色の幻影(ファントム・ルージュ)

Information


Type: Movie
Episodes: 1
Status: Finished Airing
Aired: Jan 12, 2013
Producers: VAP, Nippon Television Network, TOHO animation, Shueisha, Hiroshima Television
Licensors: Viz Media
Studios: Madhouse
Source: Manga
Genres: Action, Adventure, Fantasy, Shounen, Super Power
Duration: 1 hr. 37 min.
Rating: PG-13 - Teens 13 or older







Format : Matroska
Format version : Version 4
File size : 2.38 GiB
Duration : 1 h 37 min
Overall bit rate : 3 490 kb/s
Encoded date : UTC 2020-01-13 02:56:34
Writing application : mkvmerge v41.0.0 ('Smarra') 64-bit
Writing library : libebml v1.3.9 + libmatroska v1.5.2

Video
ID : 1
Format : HEVC
Format/Info : High Efficiency Video Coding
Format profile : Main [email protected]@Main
Codec ID : V_MPEGH/ISO/HEVC
Duration : 1 h 37 min
Bit rate : 1 495 kb/s
Width : 1 920 pixels
Height : 1 080 pixels
Display aspect ratio : 16:9
Frame rate mode : Constant
Frame rate : 23.976 (24000/1001) FPS
Color space : YUV
Chroma subsampling : 4:2:0
Bit depth : 10 bits
Bits/(Pixel*Frame) : 0.030
Stream size : 1.02 GiB (43%)
Writing library : x265 3.2.1+3-b4b2ecac21f6:[Windows][MSVC 1924][64 bit] 10bit
Encoding settings : cpuid=1111039 / frame-threads=3 / numa-pools=12 / wpp / no-pmode / no-pme / no-psnr / no-ssim / log-level=2 / input-csp=1 / input-res=1920x1080 / interlace=0 / total-frames=140657 / level-idc=0 / high-tier=1 / uhd-bd=0 / ref=4 / no-allow-non-conformance / no-repeat-headers / annexb / no-aud / no-hrd / info / hash=0 / no-temporal-layers / open-gop / min-keyint=23 / keyint=250 / gop-lookahead=0 / bframes=8 / b-adapt=2 / b-pyramid / bframe-bias=0 / rc-lookahead=80 / lookahead-slices=6 / scenecut=40 / radl=0 / no-splice / no-intra-refresh / ctu=64 / min-cu-size=8 / rect / no-amp / max-tu-size=32 / tu-inter-depth=1 / tu-intra-depth=1 / limit-tu=0 / rdoq-level=2 / dynamic-rd=0.00 / no-ssim-rd / signhide / no-tskip / nr-intra=0 / nr-inter=0 / no-constrained-intra / strong-intra-smoothing / max-merge=3 / limit-refs=3 / limit-modes / me=3 / subme=3 / merange=57 / temporal-mvp / no-hme / weightp / no-weightb / no-analyze-src-pics / deblock=0:0 / sao / no-sao-non-deblock / rd=4 / selective-sao=4 / no-early-skip / rskip / no-fast-intra / no-tskip-fast / no-cu-lossless / no-b-intra / no-splitrd-skip / rdpenalty=0 / psy-rd=0.30 / psy-rdoq=1.00 / no-rd-refine / no-lossless / cbqpoffs=0 / crqpoffs=0 / rc=crf / crf=19.0 / qcomp=0.60 / qpstep=4 / stats-write=0 / stats-read=0 / ipratio=1.40 / pbratio=1.30 / aq-mode=2 / aq-strength=1.00 / cutree / zone-count=0 / no-strict-cbr / qg-size=32 / no-rc-grain / qpmax=69 / qpmin=0 / no-const-vbv / sar=0 / overscan=0 / videoformat=5 / range=0 / colorprim=2 / transfer=2 / colormatrix=2 / chromaloc=0 / display-window=0 / cll=0,0 / min-luma=0 / max-luma=1023 / log2-max-poc-lsb=8 / vui-timing-info / vui-hrd-info / slices=1 / no-opt-qp-pps / no-opt-ref-list-length-pps / no-multi-pass-opt-rps / scenecut-bias=0.05 / no-opt-cu-delta-qp / no-aq-motion / no-hdr / no-hdr-opt / no-dhdr10-opt / no-idr-recovery-sei / analysis-reuse-level=5 / scale-factor=0 / refine-intra=0 / refine-inter=0 / refine-mv=1 / refine-ctu-distortion=0 / no-limit-sao / ctu-info=0 / no-lowpass-dct / refine-analysis-type=0 / copy-pic=1 / max-ausize-factor=1.0 / no-dynamic-refine / no-single-sei / no-hevc-aq / no-svt / no-field / qp-adaptation-range=1.00
Default : Yes
Forced : No

Audio #1
ID : 2
Format : AAC LC
Format/Info : Advanced Audio Codec Low Complexity
Codec ID : A_AAC-2
Duration : 1 h 37 min
Bit rate : 987 kb/s
Channel(s) : 6 channels
Channel layout : C L R Ls Rs LFE
Sampling rate : 48.0 kHz
Frame rate : 46.875 FPS (1024 SPF)
Compression mode : Lossy
Delay relative to video : 9 ms
Stream size : 690 MiB (28%)
Language : English
Default : Yes
Forced : No

Audio #2
ID : 3
Format : AAC LC
Format/Info : Advanced Audio Codec Low Complexity
Codec ID : A_AAC-2
Duration : 1 h 37 min
Bit rate : 996 kb/s
Channel(s) : 6 channels
Channel layout : C L R Ls Rs LFE
Sampling rate : 48.0 kHz
Frame rate : 46.875 FPS (1024 SPF)
Compression mode : Lossy
Delay relative to video : 9 ms
Stream size : 697 MiB (29%)
Language : Japanese
Default : No
Forced : No

Text #1
ID : 4
Format : PGS
Muxing mode : zlib
Codec ID : S_HDMV/PGS
Codec ID/Info : Picture based subtitle format used on BDs/HD-DVDs
Duration : 1 h 36 min
Bit rate : 28.5 kb/s
Count of elements : 2750
Stream size : 19.7 MiB (1%)
Language : English
Default : No
Forced : No

Text #2
ID : 5
Format : PGS
Muxing mode : zlib
Codec ID : S_HDMV/PGS
Codec ID/Info : Picture based subtitle format used on BDs/HD-DVDs
Duration : 1 h 31 min
Bit rate : 1 497 b/s
Count of elements : 108
Stream size : 1 002 KiB (0%)
Language : English
Default : Yes
Forced : No

Menu
00:00:00.000 : en:00:00:00.000
00:07:13.933 : en:00:07:13.933
00:15:22.755 : en:00:15:22.755
00:24:22.169 : en:00:24:22.169
00:31:44.653 : en:00:31:44.653
00:40:06.863 : en:00:40:06.863
00:49:10.865 : en:00:49:10.865
00:57:03.712 : en:00:57:03.712
01:04:22.942 : en:01:04:22.942
01:13:02.795 : en:01:13:02.795
01:19:58.711 : en:01:19:58.711
01:27:32.497 : en:01:27:32.497

Source:



Trackers List

Tracker Name
udp://tracker.coppersurfer.tk:6969/announce
udp://tracker.torrent.eu.org:451/announce
udp://tracker.tiny-vps.com:6969/announce
udp://denis.stalker.upeer.me:6969/announce
udp://tracker.cyberia.is:6969/announce
udp://open.stealth.si:80/announce
http://nyaa.tracker.wf:7777/announce

Torrent File Content

  • Hunter x Hunter - Phantom Rouge (2013) [1080p x265 HEVC 10bit BluRay Dual Audio AAC 5.1] [Prof].mkv (2.4 GB)


Latest Searches