Her.2013.720p.BluRay.x264.LLG


    Seeders : 41      Leechers : 6

Movie : Her
Downloads : 615
Language : English
tag : Her,2013,
Genres : Drama,Science Fiction,Romance,
Release date : 2013
Summary : In the not so distant future, Theodore, a lonely writer purchases a newly developed operating system designed to meet the user's every needs. To Theordore's surprise, a romantic relationship develops between him and his operating system. This unconventional love story blends science fiction and romance in a sweet tale that explores the nature of love and the ways that technology isolates and connects us all.




Description

Quote:




******************************Thumbnbil:**********************




******************************Screenshots:********************

screenshot 1

screenshot 2

screenshot 3

screenshot 4

screenshot 5

screenshot 6

screenshot 7

screenshot 8

screenshot 9

screenshot 0


******************************************************

18+.Her.2013.720p.BluRay.x264.LLG.mp4
Format : MPEG-4
Format profile : Base Media
Codec ID : isom (isom/iso2/avc1/mp41)
File size : 1.17 GiB
Duration : 2 h 5 min
Overall bit rate mode : Variable
Overall bit rate : 1 327 kb/s
Writing application : Lavf57.83.100

Video
ID : 1
Format : AVC
Format/Info : Advanced Video Codec
Format profile : [email protected]
Format settings : CABAC / 1 Ref Frames
Format settings, CABAC : Yes
Format settings, Reference frames : 1 frame
Codec ID : avc1
Codec ID/Info : Advanced Video Coding
Duration : 2 h 5 min
Bit rate mode : Variable
Bit rate : 1 227 kb/s
Maximum bit rate : 3 600 kb/s
Width : 1 280 pixels
Height : 692 pixels
Display aspect ratio : 1.85:1
Frame rate mode : Constant
Frame rate : 23.976 (23976/1000) FPS
Color space : YUV
Chroma subsampling : 4:2:0
Bit depth : 8 bits
Scan type : Progressive
Bits/(Pixel*Frame) : 0.058
Stream size : 1.08 GiB (92%)
Codec configuration box : avcC

Audio
ID : 2
Format : AAC LC
Codec ID : mp4a-40-2
Duration : 2 h 5 min
Bit rate mode : Constant
Bit rate : 96.0 kb/s
Channel(s) : 2 channels
Channel layout : L R
Sampling rate : 48.0 kHz
Frame rate : 46.875 FPS (1024 SPF)
Compression mode : Lossy
Stream size : 86.7 MiB (7%)
Language : English
Default : Yes
Alternate group : 1

1




********************************************************




Trackers List

Tracker Name
udp://tracker.openbittorrent.com:80/announce
udp://tracker.opentrackr.org:1337/announce

Torrent File Content

18+.Her.2013.720p.BluRay.x264.LLG
  • Sample.mp4 (27.0 MB)
  • 18+.Her.2013.720p.BluRay.x264.LLG.mp4 (1.2 GB)

Related torrents

Torrent Name Added Size Seed Leech
6 years ago 1.9 GB 227 16
8 months ago 4.1 GB 142 36
6 years ago 874.9 MB 79 6
6 years ago 5.5 GB 8 1
5 years ago 9.1 GB 8 0


Latest Searches