Gorgeous (1999) HK Uncut 1080p 10bit Bluray x265 HEVC [Org DD 2.0 Hindi + DD 5.1 Chinese] ESub ~ TombDoc


    Seeders : 2      Leechers : 58

Movie : Drop Dead Gorgeous
Downloads : 182
Language : Hindi
tag : McuDudeS,10bit Hindi,TombDoc,
Genres : Comedy,
Release date : 1999
Summary : In a small Minnesota town, the annual beauty pageant is being covered by a TV crew. Former winner Gladys Leeman wants to make sure her daughter follows in her footsteps; explosions, falling lights, and trailer fires prove that. As the Leemans are the richest family in town, the police are pretty relaxed about it all. Despite everything, main rival (but sweet) Amber Atkins won't give up without a fight.




Description



She wanted adventure...




Gorgeous (1999) HK Uncut 1080p 10bit Bluray x265 HEVC [Org DD 2.0 Hindi + DD 5.1 Chinese] ESub ~ TombDoc


Code:

Format : Matroska
Format version : Version 4
File size : 3.91 GiB
Duration : 1 h 59 min
Overall bit rate : 4 682 kb/s

Video
ID : 1
Format : HEVC
Format/Info : High Efficiency Video Coding
Format profile : Main [email protected]@Main
Codec ID : V_MPEGH/ISO/HEVC
Duration : 1 h 59 min
Bit rate : 4 001 kb/s
Width : 1 920 pixels
Height : 816 pixels
Display aspect ratio : 2.35:1
Frame rate mode : Constant
Frame rate : 24.000 FPS
Color space : YUV
Chroma subsampling : 4:2:0
Bit depth : 10 bits
Bits/(Pixel*Frame) : 0.106
Stream size : 3.34 GiB (85%)
Writing library : x265 3.4+6-g73f96ff39:[Windows][GCC 11.0.0][64 bit] 10bit
Encoding settings : cpuid=1111039 / frame-threads=4 / numa-pools=24 / wpp / no-pmode / no-pme / no-psnr / no-ssim / log-level=2 / input-csp=1 / input-res=1920x816 / interlace=0 / total-frames=172255 / level-idc=0 / high-tier=1 / uhd-bd=0 / ref=5 / no-allow-non-conformance / no-repeat-headers / annexb / no-aud / no-hrd / info / hash=0 / no-temporal-layers / open-gop / min-keyint=24 / keyint=250 / gop-lookahead=0 / bframes=8 / b-adapt=2 / b-pyramid / bframe-bias=0 / rc-lookahead=100 / lookahead-slices=4 / scenecut=40 / hist-scenecut=0 / radl=0 / no-splice / no-intra-refresh / ctu=64 / min-cu-size=8 / rect / amp / max-tu-size=32 / tu-inter-depth=1 / tu-intra-depth=1 / limit-tu=0 / rdoq-level=2 / dynamic-rd=0.00 / ssim-rd / signhide / no-tskip / nr-intra=0 / nr-inter=0 / no-constrained-intra / strong-intra-smoothing / max-merge=5 / limit-refs=3 / limit-modes / me=3 / subme=5 / merange=57 / temporal-mvp / no-frame-dup / no-hme / weightp / no-weightb / no-analyze-src-pics / deblock=0:0 / sao / no-sao-non-deblock / rd=4 / selective-sao=4 / no-early-skip / no-rskip / no-fast-intra / no-tskip-fast / no-cu-lossless / no-b-intra / no-splitrd-skip / rdpenalty=0 / psy-rd=0.00 / psy-rdoq=2.00 / no-rd-refine / no-lossless / cbqpoffs=0 / crqpoffs=0 / rc=abr / bitrate=4000 / qcomp=0.60 / qpstep=4 / stats-write=0 / stats-read=2 / cplxblur=20.0 / qblur=0.5 / ipratio=1.40 / pbratio=1.30 / aq-mode=4 / aq-strength=1.00 / cutree / zone-count=0 / no-strict-cbr / qg-size=32 / rc-grain / qpmax=69 / qpmin=0 / no-const-vbv / sar=0 / overscan=0 / videoformat=5 / range=0 / colorprim=1 / transfer=1 / colormatrix=1 / chromaloc=0 / display-window=0 / cll=0,0 / min-luma=0 / max-luma=1023 / log2-max-poc-lsb=8 / vui-timing-info / vui-hrd-info / slices=1 / no-opt-qp-pps / no-opt-ref-list-length-pps / no-multi-pass-opt-rps / scenecut-bias=0.05 / hist-threshold=0.01 / no-opt-cu-delta-qp / aq-motion / no-hdr10 / no-hdr10-opt / no-dhdr10-opt / no-idr-recovery-sei / analysis-reuse-level=0 / analysis-save-reuse-level=0 / analysis-load-reuse-level=0 / scale-factor=0 / refine-intra=0 / refine-inter=0 / refine-mv=1 / refine-ctu-distortion=0 / no-limit-sao / ctu-info=0 / no-lowpass-dct / refine-analysis-type=0 / copy-pic=1 / max-ausize-factor=1.0 / no-dynamic-refine / no-single-sei / hevc-aq / no-svt / no-field / qp-adaptation-range=1.00 / no-scenecut-aware-qpconformance-window-offsets / right=0 / bottom=0 / decoder-max-rate=0
Default : Yes
Forced : No
Color range : Limited
Color primaries : BT.709
Transfer characteristics : BT.709
Matrix coefficients : BT.709

Audio #1
ID : 2
Format : AC-3
Format/Info : Audio Coding 3
Commercial name : Dolby Digital
Codec ID : A_AC3
Duration : 1 h 59 min
Bit rate mode : Constant
Bit rate : 224 kb/s
Channel(s) : 2 channels
Channel layout : L R
Sampling rate : 48.0 kHz
Frame rate : 31.250 FPS (1536 SPF)
Compression mode : Lossy
Stream size : 192 MiB (5%)
Title : Org MX DD 2.0 224Kbps ~ TombDoc
Language : Hindi
Service kind : Complete Main
Default : Yes
Forced : Yes

Audio #2
ID : 3
Format : E-AC-3
Format/Info : Enhanced AC-3
Commercial name : Dolby Digital Plus
Codec ID : A_EAC3
Duration : 1 h 59 min
Bit rate mode : Constant
Bit rate : 448 kb/s
Channel(s) : 6 channels
Channel layout : L R C LFE Ls Rs
Sampling rate : 48.0 kHz
Frame rate : 31.250 FPS (1536 SPF)
Compression mode : Lossy
Stream size : 383 MiB (10%)
Title : DD+ 5.1 Chinese
Language : Chinese
Service kind : Complete Main
Default : No
Forced : No

Text
ID : 4
Format : PGS
Muxing mode : zlib
Codec ID : S_HDMV/PGS
Codec ID/Info : Picture based subtitle format used on BDs/HD-DVDs
Duration : 1 h 56 min
Bit rate : 24.3 kb/s
Count of elements : 2406
Stream size : 20.2 MiB (1%)
Title : Eng BD-PGS
Language : English
Default : Yes
Forced : Yes

Menu
00:00:00.000 : en:Chapter 01
00:09:13.125 : en:Chapter 02
00:21:21.625 : en:Chapter 03
00:30:31.708 : en:Chapter 04
00:40:30.875 : en:Chapter 05
00:50:10.875 : en:Chapter 06
00:59:51.333 : en:Chapter 07
01:07:57.792 : en:Chapter 08
01:21:00.125 : en:Chapter 09
01:31:23.792 : en:Chapter 10
01:43:27.250 : en:Chapter 11
01:50:03.000 : en:Chapter 12



Code:

Source: Gorgeous 1999 1080p HKG Blu-ray AVC TrueHD 5.1-REGRET
Hindi Audio Synced By ReaperZa {Thanks}
Syncer Note: It had 37 cuts, 2 Swapped Scenes with extra filming of 21 Min. 18 Sec.


EnjoyY the Quality...




Trackers List

Tracker Name
udp://tracker.coppersurfer.tk:6969/announce
udp://tracker.opentrackr.org:1337/announce
udp://p4p.arenabg.ch:1337/announce
udp://9.rarbg.to:2710/announce
udp://9.rarbg.me:2710/announce
udp://exodus.desync.com:6969/announce
udp://tracker.cyberia.is:6969/announce
udp://tracker.tiny-vps.com:6969/announce
udp://retracker.lanta-net.ru:2710/announce
udp://open.stealth.si:80/announce
udp://tracker3.itzmx.com:6961/announce
udp://tracker.torrent.eu.org:451/announce
http://tracker1.itzmx.com:8080/announce
udp://tracker.moeking.me:6969/announce
udp://ipv4.tracker.harry.lu:80/announce
udp://bt2.archive.org:6969/announce
udp://bt1.archive.org:6969/announce
udp://valakas.rollo.dnsabr.com:2710/announce
udp://tracker-udp.gbitt.info:80/announce
udp://retracker.akado-ural.ru:80/announce

Torrent File Content

Gorgeous a.k.a. Boh lei chun (1999) HKG Uncut ~ TombDoc
  • Gorgeous (1999) HK Uncut 1080p 10bit Bluray x265 HEVC [Org DD 2.0 Hindi + DD 5.1 Chinese] ESub ~ TombDoc.mkv (3.9 GB)
  • Gorgeous.jpg (776.2 KB)

Related torrents

Torrent Name Added Size Seed Leech
2 months ago 898.7 MB 136 44
2 months ago 1.8 GB 100 34
3 months ago 6.8 GB 22 14
8 months ago 2.3 GB 7 8
4 years ago 1.4 GB 1 1


Latest Searches