Gone.Girl.2014.720p.BluRay.x264.LLG


    Seeders : 17      Leechers : 2

Movie : Gone Girl
Downloads : 23
Language : English
tag : Gone Girl,2014,
Genres : Drama,Mystery,Thriller,
Release date : 2014
Summary : With his wife's disappearance having become the focus of an intense media circus, a man sees the spotlight turned on him when it's suspected that he may not be innocent.




Description

Quote:




******************************Thumbnbil:**********************




******************************Screenshots:********************

screenshot 1

screenshot 2

screenshot 3

screenshot 4

screenshot 5

screenshot 6

screenshot 7

screenshot 8

screenshot 9

screenshot 0


******************************************************

18+.Gone.Girl.2014.720p.BluRay.x264.LLG.mp4
Format : MPEG-4
Format profile : Base Media
Codec ID : isom (isom/iso2/avc1/mp41)
File size : 1.03 GiB
Duration : 2 h 29 min
Overall bit rate mode : Variable
Overall bit rate : 985 kb/s
Writing application : Lavf57.83.100

Video
ID : 1
Format : AVC
Format/Info : Advanced Video Codec
Format profile : [email protected]
Format settings : CABAC / 1 Ref Frames
Format settings, CABAC : Yes
Format settings, Reference frames : 1 frame
Codec ID : avc1
Codec ID/Info : Advanced Video Coding
Duration : 2 h 29 min
Bit rate mode : Variable
Bit rate : 885 kb/s
Maximum bit rate : 2 700 kb/s
Width : 1 280 pixels
Height : 532 pixels
Display aspect ratio : 2.40:1
Frame rate mode : Constant
Frame rate : 23.976 (23976/1000) FPS
Color space : YUV
Chroma subsampling : 4:2:0
Bit depth : 8 bits
Scan type : Progressive
Bits/(Pixel*Frame) : 0.054
Stream size : 943 MiB (90%)
Codec configuration box : avcC

Audio
ID : 2
Format : AAC LC
Codec ID : mp4a-40-2
Duration : 2 h 29 min
Bit rate mode : Constant
Bit rate : 96.0 kb/s
Channel(s) : 2 channels
Channel layout : L R
Sampling rate : 48.0 kHz
Frame rate : 46.875 FPS (1024 SPF)
Compression mode : Lossy
Stream size : 103 MiB (10%)
Language : English
Default : Yes
Alternate group : 1




********************************************************




Trackers List

Tracker Name
udp://tracker.openbittorrent.com:80/announce
udp://tracker.opentrackr.org:1337/announce

Torrent File Content

18+.Gone.Girl.2014.720p.BluRay.x264.LLG
  • SAMPLE.mp4 (4.2 MB)
  • 18+.Gone.Girl.2014.720p.BluRay.x264.LLG.mp4 (1.0 GB)

Related torrents

Torrent Name Added Size Seed Leech
5 years ago 984.1 MB 679 46
5 years ago 2.2 GB 216 23
6 days ago 894.5 MB 35 13
4 years ago 2.5 GB 12 2
4 years ago 8.6 GB 11 3


Latest Searches