Go! Go! Cory Carson (2020) S01-S02 (1080p NF Webrip x265 10bit EAC3 5.1 - HxD) [TAoE]


    Seeders : 6      Leechers : 5

Downloads : 38
Language : English
tag : HEVC,MKV,




Description



Hello everyone,
We are TAoE, a small team of passionate encoders who love encoding. We try our best to provide you with high quality releases.

Requests for movies and shows are welcome.
We have a form for encode requests which can be found here
Encode requests form
submit your request and it will be added to our encoding request list
You can view our encoding request list here
Encode requests list


When or if we encode it will depend on if we can obtain a good source to encode with and
if one of the TAoE encoders chooses to encode it. Unfortunately we are not able to encode everything,
new members are welcome as that helps us encode more content!

If you would like to join TAoE submit your request here!
TAoE member applications form




Go! Go! Cory Carson (2020) IMDB










Media Information



General
Unique ID : 274192572265308524615493684148855210192 (0xCE47918C318436643F5BF0B1D07D80D0)
Complete name : Go! Go! Cory Carson (2020) S01E01 Cory's First Day (1080p NF Webrip x265 10bit EAC3 5.1 - HxD) [TAoE].mkv
Format : Matroska
Format version : Version 4
File size : 122 MiB
Duration : 9 min 39 s
Overall bit rate : 1 770 kb/s
Movie name : Go! Go! Cory Carson (2020) S01E01 Cory's First Day (1080p NF Webrip x265 10bit EAC3 5.1 - HxD) [TAoE].mkv
Encoded date : UTC 2020-07-16 07:26:52
Writing application : mkvmerge v44.0.0 ('Domino') 64-bit
Writing library : libebml v1.3.10 + libmatroska v1.5.2

Video
ID : 1
Format : HEVC
Format/Info : High Efficiency Video Coding
Format profile : Main [email protected]@Main
Codec ID : V_MPEGH/ISO/HEVC
Duration : 9 min 39 s
Bit rate : 1 124 kb/s
Width : 1 920 pixels
Height : 1 080 pixels
Display aspect ratio : 16:9
Frame rate mode : Constant
Frame rate : 24.000 FPS
Color space : YUV
Chroma subsampling : 4:2:0
Bit depth : 10 bits
Bits/(Pixel*Frame) : 0.023
Stream size : 77.6 MiB (64%)
Writing library : x265 3.3+2-gbe2d82093:[Windows][GCC 9.2.0][64 bit] 10bit
Encoding settings : cpuid=1111039 / frame-threads=3 / numa-pools=8 / wpp / no-pmode / no-pme / no-psnr / no-ssim / log-level=2 / input-csp=1 / input-res=1920x1080 / interlace=0 / total-frames=13902 / level-idc=0 / high-tier=1 / uhd-bd=0 / ref=4 / no-allow-non-conformance / no-repeat-headers / annexb / no-aud / no-hrd / info / hash=0 / no-temporal-layers / open-gop / min-keyint=24 / keyint=250 / gop-lookahead=0 / bframes=8 / b-adapt=2 / b-pyramid / bframe-bias=0 / rc-lookahead=80 / lookahead-slices=4 / scenecut=40 / hist-scenecut=0 / radl=0 / no-splice / no-intra-refresh / ctu=64 / min-cu-size=8 / no-rect / no-amp / max-tu-size=32 / tu-inter-depth=1 / tu-intra-depth=1 / limit-tu=0 / rdoq-level=2 / dynamic-rd=0.00 / no-ssim-rd / signhide / no-tskip / nr-intra=0 / nr-inter=0 / no-constrained-intra / no-strong-intra-smoothing / max-merge=3 / limit-refs=3 / limit-modes / me=3 / subme=5 / merange=57 / temporal-mvp / no-frame-dup / no-hme / weightp / no-weightb / no-analyze-src-pics / deblock=0:0 / sao / no-sao-non-deblock / rd=4 / selective-sao=4 / no-early-skip / rskip / no-fast-intra / no-tskip-fast / no-cu-lossless / no-b-intra / no-splitrd-skip / rdpenalty=0 / psy-rd=1.30 / psy-rdoq=2.00 / no-rd-refine / no-lossless / cbqpoffs=0 / crqpoffs=0 / rc=crf / crf=22.0 / qcomp=0.60 / qpstep=4 / stats-write=0 / stats-read=0 / ipratio=1.40 / pbratio=1.30 / aq-mode=4 / aq-strength=1.10 / cutree / zone-count=0 / no-strict-cbr / qg-size=32 / no-rc-grain / qpmax=69 / qpmin=0 / no-const-vbv / sar=0 / overscan=0 / videoformat=5 / range=0 / colorprim=2 / transfer=2 / colormatrix=2 / chromaloc=0 / display-window=0 / cll=0,0 / min-luma=0 / max-luma=1023 / log2-max-poc-lsb=8 / vui-timing-info / vui-hrd-info / slices=1 / no-opt-qp-pps / no-opt-ref-list-length-pps / no-multi-pass-opt-rps / scenecut-bias=0.05 / hist-threshold=0.01 / no-opt-cu-delta-qp / no-aq-motion / no-hdr10 / no-hdr10-opt / no-dhdr10-opt / no-idr-recovery-sei / analysis-reuse-level=0 / analysis-save-reuse-level=0 / analysis-load-reuse-level=0 / scale-factor=0 / refine-intra=0 / refine-inter=0 / refine-mv=1 / refine-ctu-distortion=0 / no-limit-sao / ctu-info=0 / no-lowpass-dct / refine-analysis-type=0 / copy-pic=1 / max-ausize-factor=1.0 / no-dynamic-refine / no-single-sei / no-hevc-aq / no-svt / no-field / qp-adaptation-range=1.00 / no-scenecut-aware-qpconformance-window-offsets / right=0 / bottom=0
Default : Yes
Forced : No

Audio
ID : 2
Format : E-AC-3
Format/Info : Enhanced AC-3
Commercial name : Dolby Digital Plus
Codec ID : A_EAC3
Duration : 9 min 39 s
Bit rate mode : Constant
Bit rate : 640 kb/s
Channel(s) : 6 channels
Channel layout : L R C LFE Ls Rs
Sampling rate : 48.0 kHz
Frame rate : 31.250 FPS (1536 SPF)
Compression mode : Lossy
Stream size : 44.2 MiB (36%)
Language : English
Service kind : Complete Main
Default : No
Forced : No

Text #1
ID : 3
Format : UTF-8
Codec ID : S_TEXT/UTF8
Codec ID/Info : UTF-8 Plain Text
Duration : 7 min 39 s
Bit rate : 87 b/s
Count of elements : 175
Stream size : 4.90 KiB (0%)
Title : SDH
Language : English
Default : No
Forced : No

Text #2
ID : 4
Format : UTF-8
Codec ID : S_TEXT/UTF8
Codec ID/Info : UTF-8 Plain Text
Duration : 8 min 6 s
Bit rate : 118 b/s
Count of elements : 142
Stream size : 7.05 KiB (0%)
Language : Arabic
Default : No
Forced : No

Text #3
ID : 5
Format : UTF-8
Codec ID : S_TEXT/UTF8
Codec ID/Info : UTF-8 Plain Text
Duration : 8 min 6 s
Bit rate : 61 b/s
Count of elements : 137
Stream size : 3.64 KiB (0%)
Language : Czech
Default : No
Forced : No

Text #4
ID : 6
Format : UTF-8
Codec ID : S_TEXT/UTF8
Codec ID/Info : UTF-8 Plain Text
Duration : 8 min 6 s
Bit rate : 60 b/s
Count of elements : 116
Stream size : 3.58 KiB (0%)
Language : Danish
Default : No
Forced : No

Text #5
ID : 7
Format : UTF-8
Codec ID : S_TEXT/UTF8
Codec ID/Info : UTF-8 Plain Text
Duration : 8 min 6 s
Bit rate : 62 b/s
Count of elements : 118
Stream size : 3.68 KiB (0%)
Language : German
Default : No
Forced : No

Text #6
ID : 8
Format : UTF-8
Codec ID : S_TEXT/UTF8
Codec ID/Info : UTF-8 Plain Text
Duration : 8 min 6 s
Bit rate : 99 b/s
Count of elements : 137
Stream size : 5.94 KiB (0%)
Language : Greek
Default : No
Forced : No

Text #7
ID : 9
Format : UTF-8
Codec ID : S_TEXT/UTF8
Codec ID/Info : UTF-8 Plain Text
Duration : 8 min 6 s
Bit rate : 65 b/s
Count of elements : 139
Stream size : 3.90 KiB (0%)
Title : Latin American
Language : Spanish
Default : No
Forced : No

Text #8
ID : 10
Format : UTF-8
Codec ID : S_TEXT/UTF8
Codec ID/Info : UTF-8 Plain Text
Duration : 8 min 6 s
Bit rate : 58 b/s
Count of elements : 139
Stream size : 3.45 KiB (0%)
Title : European
Language : Spanish
Default : No
Forced : No

Text #9
ID : 11
Format : UTF-8
Codec ID : S_TEXT/UTF8
Codec ID/Info : UTF-8 Plain Text
Duration : 8 min 6 s
Bit rate : 58 b/s
Count of elements : 125
Stream size : 3.50 KiB (0%)
Language : Finnish
Default : No
Forced : No

Text #10
ID : 12
Format : UTF-8
Codec ID : S_TEXT/UTF8
Codec ID/Info : UTF-8 Plain Text
Duration : 8 min 6 s
Bit rate : 68 b/s
Count of elements : 141
Stream size : 4.05 KiB (0%)
Language : French
Default : No
Forced : No

Text #11
ID : 13
Format : UTF-8
Codec ID : S_TEXT/UTF8
Codec ID/Info : UTF-8 Plain Text
Duration : 8 min 6 s
Bit rate : 107 b/s
Count of elements : 137
Stream size : 6.42 KiB (0%)
Language : Hebrew
Default : No
Forced : No

Text #12
ID : 14
Format : UTF-8
Codec ID : S_TEXT/UTF8
Codec ID/Info : UTF-8 Plain Text
Duration : 8 min 6 s
Bit rate : 61 b/s
Count of elements : 135
Stream size : 3.68 KiB (0%)
Language : Hungarian
Default : No
Forced : No

Text #13
ID : 15
Format : UTF-8
Codec ID : S_TEXT/UTF8
Codec ID/Info : UTF-8 Plain Text
Duration : 8 min 6 s
Bit rate : 61 b/s
Count of elements : 136
Stream size : 3.63 KiB (0%)
Language : Indonesian
Default : No
Forced : No

Text #14
ID : 16
Format : UTF-8
Codec ID : S_TEXT/UTF8
Codec ID/Info : UTF-8 Plain Text
Duration : 8 min 6 s
Bit rate : 64 b/s
Count of elements : 136
Stream size : 3.81 KiB (0%)
Language : Italian
Default : No
Forced : No

Text #15
ID : 17
Format : UTF-8
Codec ID : S_TEXT/UTF8
Codec ID/Info : UTF-8 Plain Text
Duration : 8 min 6 s
Bit rate : 103 b/s
Count of elements : 160
Stream size : 6.13 KiB (0%)
Language : Japanese
Default : No
Forced : No

Text #16
ID : 18
Format : UTF-8
Codec ID : S_TEXT/UTF8
Codec ID/Info : UTF-8 Plain Text
Duration : 8 min 6 s
Bit rate : 81 b/s
Count of elements : 142
Stream size : 4.86 KiB (0%)
Language : Korean
Default : No
Forced : No

Text #17
ID : 19
Format : UTF-8
Codec ID : S_TEXT/UTF8
Codec ID/Info : UTF-8 Plain Text
Duration : 8 min 6 s
Bit rate : 60 b/s
Count of elements : 124
Stream size : 3.60 KiB (0%)
Language : Norwegian Bokmal
Default : No
Forced : No

Text #18
ID : 20
Format : UTF-8
Codec ID : S_TEXT/UTF8
Codec ID/Info : UTF-8 Plain Text
Duration : 8 min 6 s
Bit rate : 58 b/s
Count of elements : 117
Stream size : 3.50 KiB (0%)
Language : Dutch
Default : No
Forced : No

Text #19
ID : 21
Format : UTF-8
Codec ID : S_TEXT/UTF8
Codec ID/Info : UTF-8 Plain Text
Duration : 8 min 6 s
Bit rate : 54 b/s
Count of elements : 133
Stream size : 3.24 KiB (0%)
Language : Polish
Default : No
Forced : No

Text #20
ID : 22
Format : UTF-8
Codec ID : S_TEXT/UTF8
Codec ID/Info : UTF-8 Plain Text
Duration : 8 min 6 s
Bit rate : 62 b/s
Count of elements : 117
Stream size : 3.71 KiB (0%)
Title : European
Language : Portuguese
Default : No
Forced : No

Text #21
ID : 23
Format : UTF-8
Codec ID : S_TEXT/UTF8
Codec ID/Info : UTF-8 Plain Text
Duration : 8 min 6 s
Bit rate : 61 b/s
Count of elements : 135
Stream size : 3.67 KiB (0%)
Title : Brazilian
Language : Portuguese
Default : No
Forced : No

Text #22
ID : 24
Format : UTF-8
Codec ID : S_TEXT/UTF8
Codec ID/Info : UTF-8 Plain Text
Duration : 8 min 6 s
Bit rate : 71 b/s
Count of elements : 137
Stream size : 4.27 KiB (0%)
Language : Romanian
Default : No
Forced : No

Text #23
ID : 25
Format : UTF-8
Codec ID : S_TEXT/UTF8
Codec ID/Info : UTF-8 Plain Text
Duration : 8 min 6 s
Bit rate : 98 b/s
Count of elements : 137
Stream size : 5.83 KiB (0%)
Language : Russian
Default : No
Forced : No

Text #24
ID : 26
Format : UTF-8
Codec ID : S_TEXT/UTF8
Codec ID/Info : UTF-8 Plain Text
Duration : 8 min 7 s
Bit rate : 62 b/s
Count of elements : 125
Stream size : 3.72 KiB (0%)
Language : Swedish
Default : No
Forced : No

Text #25
ID : 27
Format : UTF-8
Codec ID : S_TEXT/UTF8
Codec ID/Info : UTF-8 Plain Text
Duration : 8 min 6 s
Bit rate : 182 b/s
Count of elements : 140
Stream size : 10.8 KiB (0%)
Language : Thai
Default : No
Forced : No

Text #26
ID : 28
Format : UTF-8
Codec ID : S_TEXT/UTF8
Codec ID/Info : UTF-8 Plain Text
Duration : 8 min 6 s
Bit rate : 65 b/s
Count of elements : 136
Stream size : 3.87 KiB (0%)
Language : Turkish
Default : No
Forced : No

Text #27
ID : 29
Format : UTF-8
Codec ID : S_TEXT/UTF8
Codec ID/Info : UTF-8 Plain Text
Duration : 8 min 6 s
Bit rate : 91 b/s
Count of elements : 140
Stream size : 5.45 KiB (0%)
Language : Vietnamese
Default : No
Forced : No

Text #28
ID : 30
Format : UTF-8
Codec ID : S_TEXT/UTF8
Codec ID/Info : UTF-8 Plain Text
Duration : 8 min 6 s
Bit rate : 72 b/s
Count of elements : 142
Stream size : 4.31 KiB (0%)
Title : Simplified
Language : Chinese
Default : No
Forced : No

Text #29
ID : 31
Format : UTF-8
Codec ID : S_TEXT/UTF8
Codec ID/Info : UTF-8 Plain Text
Duration : 8 min 6 s
Bit rate : 63 b/s
Count of elements : 138
Stream size : 3.76 KiB (0%)
Title : Traditional
Language : Chinese
Default : No
Forced : No


Source


S01: 1080p NF WEB-DL SPiRiT
S02: 1080p NF WEB-DL ExREN


Trackers List

Tracker Name
udp://tracker.coppersurfer.tk:6969/announce
udp://tracker.internetwarriors.net:1337/announce
http://tracker.opentrackr.org:1337/announce
udp://denis.stalker.upeer.me:6969/announce
udp://tracker.internetwarriors.net:1337
udp://9.rarbg.me:2720/announce
udp://explodie.org:6969/announce
udp://tracker.cyberia.is:6969/announce
udp://thetracker.org/announce
udp://open.demonii.si:1337/announce

Torrent File Content

Go! Go! Cory Carson (2020) S01-S02 (1080p NF Webrip x265 10bit EAC3 5.1 - HxD) [TAoE] Season 1
  • Go! Go! Cory Carson (2020) S01E03 Garbage Day (1080p NF Webrip x265 10bit EAC3 5.1 - HxD) [TAoE].mkv (153.2 MB)
  • Go! Go! Cory Carson (2020) S01E02 Chrissy's Best Friend (1080p NF Webrip x265 10bit EAC3 5.1 - HxD) [TAoE].mkv (129.9 MB)
  • Go! Go! Cory Carson (2020) S01E01 Cory's First Day (1080p NF Webrip x265 10bit EAC3 5.1 - HxD) [TAoE].mkv (122.3 MB)
  • Go! Go! Cory Carson (2020) S01E04 Firehouse (1080p NF Webrip x265 10bit EAC3 5.1 - HxD) [TAoE].mkv (134.4 MB)
  • Go! Go! Cory Carson (2020) S01E05 Oil Spill (1080p NF Webrip x265 10bit EAC3 5.1 - HxD) [TAoE].mkv (132.0 MB)
  • Go! Go! Cory Carson (2020) S01E06 Sleepover (1080p NF Webrip x265 10bit EAC3 5.1 - HxD) [TAoE].mkv (103.8 MB)
  • Go! Go! Cory Carson (2020) S01E07 Speed Limits (1080p NF Webrip x265 10bit EAC3 5.1 - HxD) [TAoE].mkv (127.3 MB)
Season 2
  • Go! Go! Cory Carson (2020) S02E01 Copy Car (1080p NF Webrip x265 10bit EAC3 5.1 - HxD) [TAoE].mkv (100.8 MB)
  • Go! Go! Cory Carson (2020) S02E02 Happy Anniversary (1080p NF Webrip x265 10bit EAC3 5.1 - HxD) [TAoE].mkv (109.5 MB)
  • Go! Go! Cory Carson (2020) S02E03 Mike's Carcade (1080p NF Webrip x265 10bit EAC3 5.1 - HxD) [TAoE].mkv (139.3 MB)
  • Go! Go! Cory Carson (2020) S02E04 Flat Tire (1080p NF Webrip x265 10bit EAC3 5.1 - HxD) [TAoE].mkv (114.4 MB)
  • Go! Go! Cory Carson (2020) S02E05 Cory's New Bedroom (1080p NF Webrip x265 10bit EAC3 5.1 - HxD) [TAoE].mkv (103.2 MB)
  • Go! Go! Cory Carson (2020) S02E06 Grandpa's Treasure (1080p NF Webrip x265 10bit EAC3 5.1 - HxD) [TAoE].mkv (121.8 MB)
  • Go! Go! Cory Carson (2020) S02E07 Ice Cream Truck (1080p NF Webrip x265 10bit EAC3 5.1 - HxD) [TAoE].mkv (127.2 MB)


Latest Searches