Frozen.2.Il.Segreto.Di.Arendelle.1080p.x264.ITA.ENG.MadHex


    Seeders : 1      Leechers : 0

Downloads : 5
Language : Italian
tag : anime,x264,1080p,ita,eng,madhex,




Description




[INFO]

Data di uscita:
27 novembre 2019
Genere:
Animazione, Commedia, Avventura, Fantasy, Musicale
Anno:
2019
Regia:
Chris Buck, Jennifer Lee
Attori:
Serena Autieri, Idina Menzel, Kristen Bell, Serena Rossi, Enrico Brignano, Josh Gad, Paolo De Santis, Massimo Lopez
Paese:
USA
Durata:
103 min
Distribuzione:
Walt Disney Pictures
Sceneggiatura:
Allison Schroeder
Produzione:
Walt Disney Animation Studios, Walt Disney Pictures

[TRAMA]

Frozen 2 - Il segreto di Arendelle, il film d'animazione diretto da Chris Buck e Jennifer Lee, vede Elsa, Anna, Kristoff, Olaf e Sven affrontare una nuova sfida che li metterà sulle tracce di un incredibile segreto da svelare. Sono trascorsi 3 anni dagli eventi di Frozen - Il Regno di Ghiaccio e Arendelle sembra aver ritrovato la pace. Elsa ha ormai imparato a governare i suoi straordinari poteri, mentre Anna è felice di aver trovato in Kristoff l'amore che tanto sognava. Tuttavia, la tranquillità del regno è destinata a essere turbata da una nuova minaccia proveniente dal passato. Mentre le due sorelle, Olaf, Kristoff e l'alce Sven stanno giocando, Elsa viene improvvisamente distratta da un canto misterioso che proviene dalla foresta e che solo lei riesce a sentire. Decide di ritirarsi nella sua stanza per riposare, ma Anna, preoccupata per il suo strano comportamento, la raggiunge rassicurandola con la dolce ninna nanna che la madre, la regina Irada, cantava loro quando erano bambine.
Ma quella voce angelica che non smette di tormentarla, finisce per risvegliare in lei poteri legati ad alcuni spiriti incantati, gli stessi con cui suo padre si era confrontato molti anni prima durante una battaglia nella foresta. Quando tutti gli elementi (fuoco, acqua, vento e terra) si abbattono sulla città di Arendelle, Elsa e i suoi compagni d'avventura decidono di dirigersi a nord, verso un nuovo regno dove domina l’autunno, per scoprire la causa della morte dei suoi genitori e l'origine del suo incredibile dono.
Per le voci italiane sono state confermate quelle del precedente film: Serena Autieri per Elsa, Serana Rossi per Anna, Enrico Brignano come Olaf e Paolo De Santis per il bel Kristoff.

[SCREENSHOT]



[REPORT]

Code:



Video
ID : 1
Format : AVC
Format/Info : Advanced Video Codec
Format profile : [email protected]
Format settings : CABAC / 6 Ref Frames
Format settings, CABAC : Yes
Format settings, Reference frames : 6 frames
Codec ID : avc1
Codec ID/Info : Advanced Video Coding
Duration : 1 h 43 min
Bit rate : 5 078 kb/s
Width : 1 920 pixels
Height : 804 pixels
Display aspect ratio : 2.40:1
Frame rate mode : Constant
Frame rate : 23.976 (24000/1001) FPS
Color space : YUV
Chroma subsampling : 4:2:0
Bit depth : 8 bits
Scan type : Progressive
Bits/(Pixel*Frame) : 0.137
Stream size : 3.66 GiB (89%)
Writing library : x264 core 148 r2795 aaa9aa8
Encoding settings : cabac=1 / ref=6 / deblock=1:1:1 / analyse=0x3:0x113 / me=hex / subme=7 / psy=1 / psy_rd=0.40:0.00 / mixed_ref=1 / me_range=16 / chroma_me=1 / trellis=1 / 8x8dct=1 / cqm=0 / deadzone=21,11 / fast_pskip=1 / chroma_qp_offset=-2 / threads=12 / lookahead_threads=2 / sliced_threads=0 / nr=0 / decimate=1 / interlaced=0 / bluray_compat=0 / constrained_intra=0 / bframes=5 / b_pyramid=2 / b_adapt=1 / b_bias=0 / direct=1 / weightb=1 / open_gop=0 / weightp=2 / keyint=250 / keyint_min=23 / scenecut=40 / intra_refresh=0 / rc_lookahead=40 / rc=crf / mbtree=1 / crf=17.0 / qcomp=0.60 / qpmin=0 / qpmax=69 / qpstep=4 / ip_ratio=1.40 / aq=1:0.60
Language : English
Menus : 5
Codec configuration box : avcC

Audio #1
ID : 2
Format : AAC LC
Format/Info : Advanced Audio Codec Low Complexity
Codec ID : mp4a-40-2
Duration : 1 h 43 min
Bit rate mode : Constant
Bit rate : 197 kb/s
Channel(s) : 6 channels
Channel layout : C L R Ls Rs LFE
Sampling rate : 48.0 kHz
Frame rate : 46.875 FPS (1024 SPF)
Compression mode : Lossy
Stream size : 146 MiB (3%)
Language : Italian
Default : Yes
Alternate group : 1
Menus : 5

Audio #2
ID : 3
Format : AAC LC
Format/Info : Advanced Audio Codec Low Complexity
Codec ID : mp4a-40-2
Duration : 1 h 43 min
Duration_LastFrame : -11 ms
Bit rate mode : Constant
Bit rate : 197 kb/s
Channel(s) : 6 channels
Channel layout : C L R Ls Rs LFE
Sampling rate : 48.0 kHz
Frame rate : 46.875 FPS (1024 SPF)
Compression mode : Lossy
Stream size : 146 MiB (3%)
Language : Italian
Default : No
Alternate group : 1
Menus : 5

Audio #3
ID : 4
Format : AAC LC
Format/Info : Advanced Audio Codec Low Complexity
Codec ID : mp4a-40-2
Duration : 1 h 43 min
Bit rate mode : Constant
Bit rate : 197 kb/s
Channel(s) : 6 channels
Channel layout : C L R Ls Rs LFE
Sampling rate : 48.0 kHz
Frame rate : 46.875 FPS (1024 SPF)
Compression mode : Lossy
Stream size : 146 MiB (3%)
Language : English
Default : No
Alternate group : 1
Menus : 5

Menu #1
ID : 5
Codec ID : text
Duration : 1 h 43 min
Language : English
Menu For : 1,2,3,4
00:00:00.000 : Chapter 1
00:05:42.592 : Chapter 2
00:08:27.716 : Chapter 3
00:15:01.400 : Chapter 4
00:16:29.655 : Chapter 5
00:21:25.117 : Chapter 6
00:25:45.252 : Chapter 7
00:29:08.914 : Chapter 8
00:33:45.023 : Chapter 9
00:40:27.216 : Chapter 10
00:44:37.925 : Chapter 11
00:47:42.318 : Chapter 12
00:53:04.515 : Chapter 13
00:55:27.241 : Chapter 14
01:02:36.711 : Chapter 15
01:09:57.527 : Chapter 16
01:13:48.382 : Chapter 17
01:19:26.637 : Chapter 18
01:24:28.146 : Chapter 19
01:31:17.263 : Chapter 20

Menu #2
00:00:00.000 : Chapter 1
00:05:42.592 : Chapter 2
00:08:27.716 : Chapter 3
00:15:01.400 : Chapter 4
00:16:29.655 : Chapter 5
00:21:25.117 : Chapter 6
00:25:45.252 : Chapter 7
00:29:08.914 : Chapter 8
00:33:45.023 : Chapter 9
00:40:27.216 : Chapter 10
00:44:37.925 : Chapter 11
00:47:42.318 : Chapter 12
00:53:04.515 : Chapter 13
00:55:27.241 : Chapter 14
01:02:36.711 : Chapter 15
01:09:57.527 : Chapter 16
01:13:48.382 : Chapter 17
01:19:26.637 : Chapter 18
01:24:28.146 : Chapter 19
01:31:17.263 : Chapter 20









Trackers List

Tracker Name
http://bobbialbano.com:6969/announce
http://explodie.org:6969/announce
http://h4.trakx.nibba.trade:80/announce
http://retracker.sevstar.net:2710/announce
http://0205.uptm.ch:6969/announce
http://share.camoe.cn:8080/announce
http://t.nyaatracker.com/announce
http://t.nyaatracker.com:80/announce
http://t.overflow.biz:6969/announce
http://torrenttracker.nwc.acsalaska.net:6969/announce
http://pow7.com:80/announce
http://tracker.anonwebz.xyz:8080/announce
http://tracker.bt4g.com:2095/announce
http://tracker.files.fm:6969/announce
http://tracker.gbitt.info:80/announce
http://vpn.flying-datacenter.de:6969/announce
http://vps02.net.orel.ru:80/announce
https://1337.abcvg.info:443/announce
https://tracker.imgoingto.icu:443/announce
https://tracker.nitrix.me:443/announce
https://tracker.tamersunion.org:443/announce
https://trakx.herokuapp.com:443/announce
https://w.wwwww.wtf:443/announce
udp://9.rarbg.com:2710/announce
udp://9.rarbg.to:2710/announce
udp://9.rarbg.to:2720/announce
udp://9.rarbg.to:2730/announce
udp://9.rarbg.to:2740/announce
udp://9.rarbg.to:2770/announce
udp://9.rarbg.to:2790/announce
udp://exodus.desync.com:6969/announce
udp://explodie.org:6969/announce
udp://ipv4.tracker.harry.lu:80/announce
udp://open.stealth.si:80/announce
udp://opentor.org:2710/announce
udp://p4p.arenabg.com:1337/announce
udp://retracker.lanta-net.ru:2710/announce
udp://tracker.cyberia.is:6969/announce
udp://tracker.leechers-paradise.org:6969/announce
udp://tracker.moeking.me:6969/announce
udp://tracker.open-internet.nl:6969/announce
udp://tracker.openbittorrent.com:80/announce
udp://tracker.opentrackr.org:1337/announce
udp://tracker.tiny-vps.com:6969/announce
udp://tracker.torrent.eu.org:451/announce
udp://tracker.yoshi210.com:6969/announce

Torrent File Content

  • Frozen.2.Il.Segreto.Di.Arendelle.1080p.x264.ITA.ENG.MadHex.mp4 (4.1 GB)


Latest Searches

Adult black porn  |  uma  |  CODENAME  |  Fuckf  |  爷爷无码  |  s15e15  |  JUFD-967  |  mickey les yeux bleu  |  Panel  |  Greed fall  |  mozard  |  爱呦呦  |  Meds  |  InTheCrack.E1504  |  Side A  |