Dragon Ball Z - 01-27, Movies 1-3 (Tri-Audio) [Ultimate Uncut Edition]


    Seeders : 2      Leechers : 4

Downloads : 35
Language : English
tag : Dragon Ball,Dragon Ball Z,Movies,Anime Movies,




Description

Dragon Ball Z - 01-27, Movies 1-3 (Tri-Audio) [Ultimate Uncut Edition]




Remux of all “Ultimate Uncut Edition” episodes and movies released by FUNimation from 2005-2006. FUNimation released the first 27 episodes of their 67 episode uncut redub of DBZ in this format, before canceling the release and moving on to the more infamous Orange Bricks.

Some particulars of this release:

1. The episodes contain the LATAM Spanish dub, a rarity that’s not included on any other release outside of Z Movie 5.
2. This is the only release to get a 5.1 track for the American replacement score, in this case done by Nathan Johnson (all Z movies outside of Movie 4 have a 5.1 score)
3. The episodes contain a unique OP and ED, the last of FUNi’s attempt to be “edgy” with their Z releases. The OP was written by Dave Moran, while the ED theme, still used today, is by Mark Menza.
4. This is probably the best the show looks on DVD, in some cases even having more detail than the Dragon Boxes. I would say overall the Level Sets look better though.
5. Like all pre-“remastered” releases, there is no English/Kikuchi track here.

Quote:

Video: 720x480 4x3 Untouched Remux
Audio: English 2.0 (FUNi), English 5.1 (FUNi), LATAM Spanish 2.0 (episodes only), Japanese Mono, Commentary track (Movie 1 only)



Quote:


General
Complete name                            : Dragon Ball Z - Movie 01 - Dead Zone [UUE][iKaos].mkv
Format                                   : Matroska
Format version                           : Version 2
File size                                : 1.88 GiB
Duration                                 : 41mn 19s
Overall bit rate mode                    : Variable
Overall bit rate                         : 6 525 Kbps
Encoded date                             : UTC 2020-03-29 17:26:50
Writing application                      : MakeMKV v1.15.0 win(x64-release)
Writing library                          : libmakemkv v1.15.0 (1.3.5/1.4.7) win(x64-release)
Original source medium                   : DVD-Video

Video
ID                                       : 1
ID in the original source medium         : 224 (0xE0)
Format                                   : MPEG Video
Format version                           : Version 2
Format profile                           : [email protected]
Format settings, BVOP                    : Yes
Format settings, Matrix                  : Custom
Format settings, GOP                     : M=3, N=15
Format settings, picture structure       : Frame
Codec ID                                 : V_MPEG2
Codec ID/Info                            : MPEG 1 or 2 Video
Duration                                 : 41mn 19s
Bit rate mode                            : Variable
Bit rate                                 : 5 295 Kbps
Width                                    : 720 pixels
Height                                   : 480 pixels
Display aspect ratio                     : 4:3
Frame rate mode                          : Constant
Frame rate                               : 29.970 (30000/1001) fps
Standard                                 : NTSC
Color space                              : YUV
Chroma subsampling                       : 4:2:0
Bit depth                                : 8 bits
Scan type                                : Interlaced
Scan order                               : Top Field First
Compression mode                         : Lossy
Bits/(Pixel*Frame)                       : 0.511
Time code of first frame                 : 00:00:00;00
Time code source                         : Group of pictures header
GOP, Open/Closed                         : Closed
Stream size                              : 1.53 GiB (81%)
Language                                 : English
Default                                  : No
Forced                                   : No

Audio #1
ID                                       : 2
ID in the original source medium         : 189 (0xBD)-128 (0x80)
Format                                   : AC-3
Format/Info                              : Audio Coding 3
Mode extension                           : CM (complete main)
Format settings, Endianness              : Big
Codec ID                                 : A_AC3
Duration                                 : 41mn 18s
Bit rate mode                            : Constant
Bit rate                                 : 256 Kbps
Channel(s)                               : 2 channels
Channel positions                        : Front: L R
Sampling rate                            : 48.0 KHz
Frame rate                               : 31.250 fps (1536 spf)
Compression mode                         : Lossy
Stream size                              : 75.6 MiB (4%)
Title                                    : Stereo
Language                                 : English
Default                                  : Yes
Forced                                   : No

Audio #2
ID                                       : 3
ID in the original source medium         : 189 (0xBD)-129 (0x81)
Format                                   : AC-3
Format/Info                              : Audio Coding 3
Mode extension                           : CM (complete main)
Format settings, Endianness              : Big
Codec ID                                 : A_AC3
Duration                                 : 41mn 18s
Bit rate mode                            : Constant
Bit rate                                 : 256 Kbps
Channel(s)                               : 2 channels
Channel positions                        : Front: L R
Sampling rate                            : 48.0 KHz
Frame rate                               : 31.250 fps (1536 spf)
Compression mode                         : Lossy
Stream size                              : 75.6 MiB (4%)
Title                                    : Stereo
Language                                 : Japanese
Default                                  : No
Forced                                   : No

Audio #3
ID                                       : 4
ID in the original source medium         : 189 (0xBD)-130 (0x82)
Format                                   : AC-3
Format/Info                              : Audio Coding 3
Mode extension                           : CM (complete main)
Format settings, Endianness              : Big
Codec ID                                 : A_AC3
Duration                                 : 41mn 18s
Bit rate mode                            : Constant
Bit rate                                 : 448 Kbps
Channel(s)                               : 6 channels
Channel positions                        : Front: L C R, Side: L R, LFE
Sampling rate                            : 48.0 KHz
Frame rate                               : 31.250 fps (1536 spf)
Compression mode                         : Lossy
Stream size                              : 132 MiB (7%)
Title                                    : Surround 5.1
Language                                 : English
Default                                  : No
Forced                                   : No

Audio #4
ID                                       : 5
ID in the original source medium         : 189 (0xBD)-131 (0x83)
Format                                   : AC-3
Format/Info                              : Audio Coding 3
Mode extension                           : CM (complete main)
Format settings, Endianness              : Big
Codec ID                                 : A_AC3
Duration                                 : 41mn 18s
Bit rate mode                            : Constant
Bit rate                                 : 256 Kbps
Channel(s)                               : 2 channels
Channel positions                        : Front: L R
Sampling rate                            : 48.0 KHz
Frame rate                               : 31.250 fps (1536 spf)
Compression mode                         : Lossy
Stream size                              : 75.6 MiB (4%)
Title                                    : Stereo
Language                                 : English
Default                                  : No
Forced                                   : No

Text #1
ID                                       : 6
ID in the original source medium         : 189 (0xBD)-32 (0x20)
Format                                   : VobSub
Codec ID                                 : S_VOBSUB
Codec ID/Info                            : Picture based subtitle format used on DVDs
Duration                                 : 38mn 43s
Bit rate                                 : 2 807 bps
Count of elements                        : 294
Stream size                              : 796 KiB (0%)
Language                                 : English
Default                                  : Yes
Forced                                   : No

Text #2
ID                                       : 7
ID in the original source medium         : 189 (0xBD)-33 (0x21)
Format                                   : VobSub
Codec ID                                 : S_VOBSUB
Codec ID/Info                            : Picture based subtitle format used on DVDs
Duration                                 : 40mn 36s
Bit rate                                 : 2 868 bps
Count of elements                        : 331
Stream size                              : 853 KiB (0%)
Language                                 : English
Default                                  : No
Forced                                   : No

Menu
00:00:00.066                             : en:Chapter 01
00:00:01.568                             : en:Chapter 02
00:01:44.170                             : en:Chapter 03
00:03:31.878                             : en:Chapter 04
00:07:10.696                             : en:Chapter 05
00:12:35.921                             : en:Chapter 06
00:18:09.955                             : en:Chapter 07
00:22:06.391                             : en:Chapter 08
00:26:29.754                             : en:Chapter 09
00:30:04.869                             : en:Chapter 10
00:33:45.990                             : en:Chapter 11
00:37:25.209                             : en:Chapter 12
00:39:37.341                             : en:Chapter 13
00:41:18.042                             : en:Chapter 14
00:41:18.142                             : en:Chapter 15
00:41:18.642                             : en:Chapter 16










Trackers List

Tracker Name
http://nyaa.tracker.wf:7777/announce
udp://tracker.coppersurfer.tk:6969/announce
udp://tracker.leechers-paradise.org:6969/announce
udp://9.rarbg.to:2710/announce
udp://tracker.opentrackr.org:1337/announce
udp://tracker.internetwarriors.net:1337/announce
udp://tracker.openbittorrent.com:80/announce
udp://open.demonii.si:1337/announce
udp://exodus.desync.com:6969/announce
udp://explodie.org:6969/announce
udp://open.stealth.si:80/announce

Torrent File Content

[SoM] Dragon Ball Z - 01-27 [Ultimate Uncut Edition][Dual-Audio][REMUX][480p]
  • Dragon Ball Z - 001 - The New Threat [UUE][iKaos].mkv (1.0 GB)
  • Dragon Ball Z - 002 - Reunions [UUE][iKaos].mkv (1.0 GB)
  • Dragon Ball Z - 003 - Unlikely Alliance [UUE][iKaos].mkv (1.0 GB)
  • Dragon Ball Z - 004 - Piccolo's Plan [UUE][iKaos].mkv (1.1 GB)
  • Dragon Ball Z - 005 - Gohan's Rage [UUE][iKaos].mkv (1.1 GB)
  • Dragon Ball Z - 006 - No Time Like The Present [UUE][iKaos].mkv (1.1 GB)
  • Dragon Ball Z - 007 - Day 1 [UUE][iKaos].mkv (1.1 GB)
  • Dragon Ball Z - 008 - Gohan Goes Bananas! [UUE][iKaos].mkv (1.1 GB)
  • Dragon Ball Z - 009 - The Strangest Robot [UUE][iKaos].mkv (1.1 GB)
  • Dragon Ball Z - 010 - A New Friend [UUE][iKaos].mkv (1.1 GB)
  • Dragon Ball Z - 011 - Terror on Arlia [UUE][iKaos].mkv (1.1 GB)
  • Dragon Ball Z - 012 - Global Training [UUE][iKaos].mkv (1.1 GB)
  • Dragon Ball Z - 013 - Goz and Mez [UUE][iKaos].mkv (980.2 MB)
  • Dragon Ball Z - 014 - Princess Snake [UUE][iKaos].mkv (968.8 MB)
  • Dragon Ball Z - 015 - Dueling Piccolos [UUE][iKaos].mkv (968.5 MB)
  • Dragon Ball Z - 016 - Pendulum Room Peril [UUE][iKaos].mkv (1.0 GB)
  • Dragon Ball Z - 017 - Plight of the Children [UUE][iKaos].mkv (1.0 GB)
  • Dragon Ball Z - 018 - The End of Snake Way [UUE][iKaos].mkv (1.0 GB)
  • Dragon Ball Z - 019 - Defying Gravity [UUE][iKaos].mkv (958.9 MB)
  • Dragon Ball Z - 020 - Goku's Ancestors [UUE][iKaos].mkv (959.3 MB)
  • Dragon Ball Z - 021 - Counting Down [UUE][iKaos].mkv (971.2 MB)
  • Dragon Ball Z - 022 - The Darkest Day [UUE][iKaos].mkv (1.0 GB)
  • Dragon Ball Z - 023 - Saibamen Attack! [UUE][iKaos].mkv (1.0 GB)
  • Dragon Ball Z - 024 - The Power of Nappa [UUE][iKaos].mkv (1.0 GB)
  • Dragon Ball Z - 025 - Sacrifice [UUE][iKaos].mkv (1,023.0 MB)
  • Dragon Ball Z - 026 - Nappa's Rampage [UUE][iKaos].mkv (1,010.6 MB)
  • Dragon Ball Z - 027 - Nimbus Speed [UUE][iKaos].mkv (1.0 GB)
  • Dragon Ball Z - Movie 01 - Dead Zone [UUE][iKaos].mkv (1.9 GB)
  • Dragon Ball Z - Movie 02 - The World's Strongest [UUE][iKaos].mkv (2.5 GB)
  • Dragon Ball Z - Movie 03 - Tree of Might [UUE][iKaos].mkv (2.6 GB)


Latest Searches