Dark Places 2015 720p WEB-DL DD5.1 EN-SUB H.264-PLAYNOW


    Seeders : 1      Leechers : 0

Movie : Dark Places
Downloads : 187
Language : English
tag : Drama,Mystery,Thriller,720p,HD;WEB-DL,
Genres : Thriller,Drama,Mystery,
Release date : 2015
Summary : A woman who survived the brutal killing of her family as a child is forced to confront the events of that day.




Description

Dark Places 2015 720p WEB-DL DD5.1 H.264-PLAYNOW

Stars: Charlize Theron, Sterling Jerins, Nicholas Hoult

Libby Day was only seven years old when her family was brutally murdered in their rural Kansas farmhouse. Twenty-five years later, she agrees to revisit the crime and uncovers the wrenching truths that led up to that tragic night.





Format : Matroska
Format version : Version 4 / Version 2
File size : 3.41 GiB
Duration : 1h 53mn
Overall bit rate : 4 321 Kbps
Encoded date : UTC 2015-07-31 04:37:26
Writing application : mkvmerge v7.0.0 ('Where We Going') 64bit built on Jun 9 2014 15:16:27
Writing library : libebml v1.3.0 + libmatroska v1.4.1

Video
ID : 2
Format : AVC
Format/Info : Advanced Video Codec
Format profile : [email protected]
Format settings, CABAC : No
Format settings, ReFrames : 2 frames
Codec ID : V_MPEG4/ISO/AVC
Duration : 1h 53mn
Bit rate : 3 851 Kbps
Width : 1 280 pixels
Height : 528 pixels
Display aspect ratio : 2.40:1
Frame rate mode : Constant
Frame rate : 23.976 fps
Color space : YUV
Chroma subsampling : 4:2:0
Bit depth : 8 bits
Scan type : Progressive
Bits/(Pixel*Frame) : 0.238
Stream size : 3.04 GiB (89%)
Language : English
Default : Yes
Forced : No
Color primaries : BT.709
Transfer characteristics : BT.709
Matrix coefficients : BT.709
Color range : Limited

Audio
ID : 1
Format : AC-3
Format/Info : Audio Coding 3
Mode extension : CM (complete main)
Format settings, Endianness : Big
Codec ID : A_AC3
Duration : 1h 53mn
Bit rate mode : Constant
Bit rate : 384 Kbps
Channel(s) : 6 channels
Channel positions : Front: L C R, Side: L R, LFE
Sampling rate : 48.0 KHz
Bit depth : 16 bits
Compression mode : Lossy
Stream size : 311 MiB (9%)
Language : English
Default : Yes
Forced : No

Text
ID : 3
Format : UTF-8
Codec ID : S_TEXT/UTF8
Codec ID/Info : UTF-8 Plain Text
Language : English
Default : No
Forced : No

Menu
00:00:00.000 : en:1
00:18:22.000 : en:2
00:30:49.000 : en:3
00:46:45.000 : en:4
01:01:47.000 : en:5
01:20:52.000 : en:6
01:33:12.000 : en:7
01:46:42.000 : en:8


Trackers List

Tracker Name
udp://open.demonii.com:1337/announce
udp://coppersurfer.tk:6969/announce
http://tracker.aletorrenty.pl:2710/announce
http://torrent.gresille.org/announce
udp://tracker.coppersurfer.tk:6969
udp://open.demonii.com:1337
udp://glotorrents.pw:6969/announce
http://tracker.pubt.net:2710/announce
udp://tracker.xelion.fr:6969/announce
udp://tracker.leechers-paradise.org:6969
udp://tracker.opentrackr.org:1337/announce
udp://glotorrents.pw:6969
udp://tracker.openbittorrent.com:80/announce
udp://tracker.istole.it:80/announce

Torrent File Content

  • Dark.Places.2015.720p.WEB-DL.DD5.1.H.264-PLAYNOW.mkv (3.4 GB)

Related torrents

Torrent Name Added Size Seed Leech
3 years ago 814.3 MB 33 4
3 years ago 1.6 GB 25 3
2 years ago 7.7 GB 3 0
3 years ago 846.4 MB 2 0
1 year ago 2.1 GB 2 1


Latest Searches