Dark City (1998) (1080p BDRip x265 10bit DTS-HD MA 7.1 - xtrem3x) [TAoE].mkv


    Seeders : 22      Leechers : 17

Movie : Dark City
Downloads : 116
Language : English
tag : HEVC,MKV,
Genres : Mystery,Science Fiction,Thriller,
Release date : 1998
Summary : A man struggles with memories of his past, including a wife he cannot remember, in a nightmarish world with no sun and run by beings with telekinetic powers who seek the souls of humans.




Description



Hello everyone,
We are TAoE, a small team of passionate encoders who love encoding. We try our best to provide you with high quality releases.

Requests for movies and shows are welcome.
We have a form for encode requests which can be found here
Encode requests form
submit your request and it will be added to our encoding request list
You can view our encoding request list here
Encode requests list


When or if we encode it will depend on if we can obtain a good source to encode with and
if one of the TAoE encoders chooses to encode it. Unfortunately we are not able to encode everything,
new members are welcome as that helps us encode more content!

If you would like to join TAoE submit your request here!
TAoE member applications form




Dark City (1998) IMDB

Encoder note - Source is the new LEGi0N remux from the DE Blu-ray. DE uses 30000 kbps AVC, US uses 18092 kbps VC1












Media Information



General
Unique ID : 85776750518731331712069097564970857665 (0x40880050FA5C6AD5E9E4BF0E98EEB4C1)
Complete name : Dark City (1998) (1080p BDRip x265 10bit DTS-HD MA 7.1 - xtrem3x) [TAoE].mkv
Format : Matroska
Format version : Version 4
File size : 8.16 GiB
Duration : 1 h 40 min
Overall bit rate mode : Variable
Overall bit rate : 11.6 Mb/s
Writing application : Lavf58.29.100
Writing library : Lavf58.29.100
ErrorDetectionType : Per level 1

Video
ID : 1
Format : HEVC
Format/Info : High Efficiency Video Coding
Format profile : Main [email protected]@Main
Codec ID : V_MPEGH/ISO/HEVC
Duration : 1 h 40 min
Bit rate : 4 856 kb/s
Width : 1 920 pixels
Height : 816 pixels
Display aspect ratio : 2.35:1
Frame rate mode : Constant
Frame rate : 23.976 (24000/1001) FPS
Color space : YUV
Chroma subsampling : 4:2:0
Bit depth : 10 bits
Bits/(Pixel*Frame) : 0.129
Stream size : 3.41 GiB (42%)
Title : Encoded by xtrem3x for TAoE using Shinguru V1.9
Writing library : x265 3.2+35-acc5d16999e2:[Windows][GCC 9.2.1][64 bit] 10bit
Encoding settings : cpuid=1111039 / frame-threads=3 / numa-pools=12 / wpp / no-pmode / no-pme / no-psnr / no-ssim / log-level=2 / input-csp=1 / input-res=1920x816 / interlace=0 / total-frames=0 / level-idc=0 / high-tier=1 / uhd-bd=0 / ref=4 / no-allow-non-conformance / no-repeat-headers / annexb / no-aud / no-hrd / info / hash=0 / no-temporal-layers / open-gop / min-keyint=23 / keyint=250 / gop-lookahead=0 / bframes=8 / b-adapt=2 / b-pyramid / bframe-bias=0 / rc-lookahead=80 / lookahead-slices=4 / scenecut=40 / hist-scenecut=0 / radl=0 / no-splice / no-intra-refresh / ctu=64 / min-cu-size=8 / no-rect / no-amp / max-tu-size=32 / tu-inter-depth=1 / tu-intra-depth=1 / limit-tu=0 / rdoq-level=2 / dynamic-rd=0.00 / no-ssim-rd / signhide / no-tskip / nr-intra=0 / nr-inter=0 / no-constrained-intra / no-strong-intra-smoothing / max-merge=3 / limit-refs=3 / limit-modes / me=3 / subme=5 / merange=57 / temporal-mvp / no-frame-dup / no-hme / weightp / no-weightb / no-analyze-src-pics / deblock=0:0 / sao / no-sao-non-deblock / rd=4 / selective-sao=4 / no-early-skip / rskip / no-fast-intra / no-tskip-fast / no-cu-lossless / no-b-intra / no-splitrd-skip / rdpenalty=0 / psy-rd=1.30 / psy-rdoq=2.00 / no-rd-refine / no-lossless / cbqpoffs=0 / crqpoffs=0 / rc=crf / crf=18.0 / qcomp=0.60 / qpstep=4 / stats-write=0 / stats-read=0 / ipratio=1.40 / pbratio=1.30 / aq-mode=4 / aq-strength=1.10 / cutree / zone-count=0 / no-strict-cbr / qg-size=32 / no-rc-grain / qpmax=69 / qpmin=0 / no-const-vbv / sar=1 / overscan=0 / videoformat=5 / range=0 / colorprim=2 / transfer=2 / colormatrix=2 / chromaloc=0 / display-window=0 / cll=0,0 / min-luma=0 / max-luma=1023 / log2-max-poc-lsb=8 / vui-timing-info / vui-hrd-info / slices=1 / no-opt-qp-pps / no-opt-ref-list-length-pps / no-multi-pass-opt-rps / scenecut-bias=0.05 / hist-threshold=0.01 / no-opt-cu-delta-qp / no-aq-motion / no-hdr10 / no-hdr10-opt / no-dhdr10-opt / no-idr-recovery-sei / analysis-reuse-level=0 / analysis-save-reuse-level=0 / analysis-load-reuse-level=0 / scale-factor=0 / refine-intra=0 / refine-inter=0 / refine-mv=1 / refine-ctu-distortion=0 / no-limit-sao / ctu-info=0 / no-lowpass-dct / refine-analysis-type=0 / copy-pic=1 / max-ausize-factor=1.0 / no-dynamic-refine / no-single-sei / no-hevc-aq / no-svt / no-field / qp-adaptation-range=1.00 / no-scenecut-aware-qpconformance-window-offsets / right=0 / bottom=0
Language : English
Default : Yes
Forced : No
Color range : Limited

Audio #1
ID : 2
Format : DTS XLL
Format/Info : Digital Theater Systems
Commercial name : DTS-HD Master Audio
Codec ID : A_DTS
Duration : 1 h 40 min
Bit rate mode : Variable
Bit rate : 6 046 kb/s
Channel(s) : 8 channels
Channel layout : C L R LFE Lb Rb Lss Rss
Sampling rate : 48.0 kHz
Frame rate : 93.750 FPS (512 SPF)
Bit depth : 24 bits
Compression mode : Lossless
Stream size : 4.24 GiB (52%)
Language : English
Default : Yes
Forced : No

Audio #2
ID : 3
Format : DTS
Format/Info : Digital Theater Systems
Codec ID : A_DTS
Duration : 1 h 40 min
Bit rate mode : Constant
Bit rate : 255 kb/s
Channel(s) : 2 channels
Channel layout : L R
Sampling rate : 48.0 kHz
Frame rate : 93.750 FPS (512 SPF)
Bit depth : 24 bits
Compression mode : Lossy
Stream size : 183 MiB (2%)
Title : English commentary by director Alex Proyas.
Language : English
Default : No
Forced : No

Audio #3
ID : 4
Format : DTS
Format/Info : Digital Theater Systems
Codec ID : A_DTS
Duration : 1 h 40 min
Bit rate mode : Constant
Bit rate : 255 kb/s
Channel(s) : 2 channels
Channel layout : L R
Sampling rate : 48.0 kHz
Frame rate : 93.750 FPS (512 SPF)
Bit depth : 24 bits
Compression mode : Lossy
Stream size : 183 MiB (2%)
Title : English commentary by film critic Roger Ebert
Language : English
Default : No
Forced : No

Text #1
ID : 5
Format : PGS
Codec ID : S_HDMV/PGS
Codec ID/Info : Picture based subtitle format used on BDs/HD-DVDs
Duration : 1 h 39 min
Bit rate : 37.6 kb/s
Count of elements : 2435
Stream size : 26.9 MiB (0%)
Title : English (SDH)
Language : English
Default : No
Forced : No

Text #2
ID : 6
Format : PGS
Codec ID : S_HDMV/PGS
Codec ID/Info : Picture based subtitle format used on BDs/HD-DVDs
Duration : 1 h 33 min
Bit rate : 23.9 kb/s
Count of elements : 1846
Stream size : 16.0 MiB (0%)
Title : Danish
Language : Danish
Default : No
Forced : No

Text #3
ID : 7
Format : PGS
Codec ID : S_HDMV/PGS
Codec ID/Info : Picture based subtitle format used on BDs/HD-DVDs
Duration : 1 h 33 min
Bit rate : 23.5 kb/s
Count of elements : 1664
Stream size : 15.7 MiB (0%)
Title : Finnish
Language : Finnish
Default : No
Forced : No

Text #4
ID : 8
Format : PGS
Codec ID : S_HDMV/PGS
Codec ID/Info : Picture based subtitle format used on BDs/HD-DVDs
Duration : 1 h 33 min
Bit rate : 19.4 kb/s
Count of elements : 1195
Stream size : 13.0 MiB (0%)
Title : Norwegian
Language : Norwegian
Default : No
Forced : No

Text #5
ID : 9
Format : PGS
Codec ID : S_HDMV/PGS
Codec ID/Info : Picture based subtitle format used on BDs/HD-DVDs
Duration : 1 h 33 min
Bit rate : 27.3 kb/s
Count of elements : 1858
Stream size : 18.3 MiB (0%)
Title : Portuguese
Language : Portuguese
Default : No
Forced : No

Text #6
ID : 10
Format : PGS
Codec ID : S_HDMV/PGS
Codec ID/Info : Picture based subtitle format used on BDs/HD-DVDs
Duration : 1 h 33 min
Bit rate : 26.2 kb/s
Count of elements : 1858
Stream size : 17.5 MiB (0%)
Title : Spanish
Language : Spanish
Default : No
Forced : No

Text #7
ID : 11
Format : PGS
Codec ID : S_HDMV/PGS
Codec ID/Info : Picture based subtitle format used on BDs/HD-DVDs
Duration : 1 h 33 min
Bit rate : 19.7 kb/s
Count of elements : 1103
Stream size : 13.2 MiB (0%)
Title : Swedish
Language : Swedish
Default : No
Forced : No

Text #8
ID : 12
Format : PGS
Codec ID : S_HDMV/PGS
Codec ID/Info : Picture based subtitle format used on BDs/HD-DVDs
Duration : 1 h 40 min
Bit rate : 29.5 kb/s
Count of elements : 2064
Stream size : 21.1 MiB (0%)
Title : German
Language : German
Default : No
Forced : No

Menu
00:00:00.000 : :Chapter 01
00:02:54.007 : :Chapter 02
00:07:18.271 : :Chapter 03
00:11:32.525 : :Chapter 04
00:16:34.827 : :Chapter 05
00:19:45.017 : :Chapter 06
00:25:00.708 : :Chapter 07
00:29:51.206 : :Chapter 08
00:41:42.917 : :Chapter 09
00:49:35.181 : :Chapter 10
00:55:46.552 : :Chapter 11
01:01:23.513 : :Chapter 12
01:06:22.395 : :Chapter 13
01:09:17.987 : :Chapter 14
01:18:21.530 : :Chapter 15
01:28:57.165 : :Chapter 16
01:34:02.595 : :Chapter 17


Source Information



General
Unique ID : 217490850905774872221768439394016909515 (0xA39F36D85D76129DD564A5E5F81F58CB)
Complete name : Dark.City.1998.REMUX.1080p.Blu-ray.AVC.DTS-HD.MA.7.1-LEGi0N.mkv
Format : Matroska
Format version : Version 4
File size : 25.8 GiB
Duration : 1 h 40 min
Overall bit rate mode : Variable
Overall bit rate : 36.7 Mb/s
Encoded date : UTC 2020-07-23 15:09:45
Writing application : mkvmerge v48.0.0 ('Fortress Around Your Heart') 64-bit
Writing library : libebml v1.4.0 + libmatroska v1.6.0

Video
ID : 1
Format : AVC
Format/Info : Advanced Video Codec
Format profile : [email protected]
Format settings : CABAC / 4 Ref Frames
Format settings, CABAC : Yes
Format settings, Reference frames : 4 frames
Codec ID : V_MPEG4/ISO/AVC
Duration : 1 h 40 min
Bit rate mode : Variable
Bit rate : 30.0 Mb/s
Maximum bit rate : 33.0 Mb/s
Width : 1 920 pixels
Height : 1 080 pixels
Display aspect ratio : 16:9
Frame rate mode : Constant
Frame rate : 23.976 (24000/1001) FPS
Color space : YUV
Chroma subsampling : 4:2:0
Bit depth : 8 bits
Scan type : Progressive
Bits/(Pixel*Frame) : 0.603
Stream size : 21.0 GiB (82%)
Title : English
Language : English
Default : Yes
Forced : No
Color range : Limited
Color primaries : BT.709
Transfer characteristics : BT.709
Matrix coefficients : BT.709

Audio #1
ID : 2
Format : DTS XLL
Format/Info : Digital Theater Systems
Commercial name : DTS-HD Master Audio
Codec ID : A_DTS
Duration : 1 h 40 min
Bit rate mode : Variable
Bit rate : 6 046 kb/s
Channel(s) : 8 channels
Channel layout : C L R LFE Lb Rb Lss Rss
Sampling rate : 48.0 kHz
Frame rate : 93.750 FPS (512 SPF)
Bit depth : 24 bits
Compression mode : Lossless
Stream size : 4.24 GiB (16%)
Title : English
Language : English
Default : Yes
Forced : No

Audio #2
ID : 3
Format : DTS
Format/Info : Digital Theater Systems
Codec ID : A_DTS
Duration : 1 h 40 min
Bit rate mode : Constant
Bit rate : 255 kb/s
Channel(s) : 2 channels
Channel layout : L R
Sampling rate : 48.0 kHz
Frame rate : 93.750 FPS (512 SPF)
Bit depth : 24 bits
Compression mode : Lossy
Stream size : 183 MiB (1%)
Title : English commentary by director Alex Proyas.
Language : English
Default : No
Forced : No

Audio #3
ID : 4
Format : DTS
Format/Info : Digital Theater Systems
Codec ID : A_DTS
Duration : 1 h 40 min
Bit rate mode : Constant
Bit rate : 255 kb/s
Channel(s) : 2 channels
Channel layout : L R
Sampling rate : 48.0 kHz
Frame rate : 93.750 FPS (512 SPF)
Bit depth : 24 bits
Compression mode : Lossy
Stream size : 183 MiB (1%)
Title : English commentary by film critic Roger Ebert
Language : English
Default : No
Forced : No

Text #1
ID : 5
Format : PGS
Codec ID : S_HDMV/PGS
Codec ID/Info : Picture based subtitle format used on BDs/HD-DVDs
Duration : 1 h 39 min
Bit rate : 37.6 kb/s
Count of elements : 2435
Stream size : 26.9 MiB (0%)
Title : English (SDH)
Language : English
Default : No
Forced : No

Text #2
ID : 6
Format : PGS
Codec ID : S_HDMV/PGS
Codec ID/Info : Picture based subtitle format used on BDs/HD-DVDs
Duration : 1 h 33 min
Bit rate : 23.9 kb/s
Count of elements : 1846
Stream size : 16.0 MiB (0%)
Title : Danish
Language : Danish
Default : No
Forced : No

Text #3
ID : 7
Format : PGS
Codec ID : S_HDMV/PGS
Codec ID/Info : Picture based subtitle format used on BDs/HD-DVDs
Duration : 1 h 33 min
Bit rate : 23.5 kb/s
Count of elements : 1664
Stream size : 15.7 MiB (0%)
Title : Finnish
Language : Finnish
Default : No
Forced : No

Text #4
ID : 8
Format : PGS
Codec ID : S_HDMV/PGS
Codec ID/Info : Picture based subtitle format used on BDs/HD-DVDs
Duration : 1 h 33 min
Bit rate : 19.4 kb/s
Count of elements : 1195
Stream size : 13.0 MiB (0%)
Title : Norwegian
Language : Norwegian
Default : No
Forced : No

Text #5
ID : 9
Format : PGS
Codec ID : S_HDMV/PGS
Codec ID/Info : Picture based subtitle format used on BDs/HD-DVDs
Duration : 1 h 33 min
Bit rate : 27.3 kb/s
Count of elements : 1858
Stream size : 18.3 MiB (0%)
Title : Portuguese
Language : Portuguese
Default : No
Forced : No

Text #6
ID : 10
Format : PGS
Codec ID : S_HDMV/PGS
Codec ID/Info : Picture based subtitle format used on BDs/HD-DVDs
Duration : 1 h 33 min
Bit rate : 26.2 kb/s
Count of elements : 1858
Stream size : 17.5 MiB (0%)
Title : Spanish
Language : Spanish
Default : No
Forced : No

Text #7
ID : 11
Format : PGS
Codec ID : S_HDMV/PGS
Codec ID/Info : Picture based subtitle format used on BDs/HD-DVDs
Duration : 1 h 33 min
Bit rate : 19.7 kb/s
Count of elements : 1103
Stream size : 13.2 MiB (0%)
Title : Swedish
Language : Swedish
Default : No
Forced : No

Text #8
ID : 12
Format : PGS
Codec ID : S_HDMV/PGS
Codec ID/Info : Picture based subtitle format used on BDs/HD-DVDs
Duration : 1 h 40 min
Bit rate : 29.5 kb/s
Count of elements : 2064
Stream size : 21.1 MiB (0%)
Title : German
Language : German
Default : No
Forced : No

Menu
00:00:00.000 : :Chapter 01
00:02:54.007 : :Chapter 02
00:07:18.271 : :Chapter 03
00:11:32.525 : :Chapter 04
00:16:34.827 : :Chapter 05
00:19:45.017 : :Chapter 06
00:25:00.708 : :Chapter 07
00:29:51.206 : :Chapter 08
00:41:42.917 : :Chapter 09
00:49:35.181 : :Chapter 10
00:55:46.552 : :Chapter 11
01:01:23.513 : :Chapter 12
01:06:22.395 : :Chapter 13
01:09:17.987 : :Chapter 14
01:18:21.530 : :Chapter 15
01:28:57.165 : :Chapter 16
01:34:02.595 : :Chapter 17


Trackers List

Tracker Name
udp://tracker.coppersurfer.tk:6969/announce
udp://tracker.internetwarriors.net:1337/announce
http://tracker.opentrackr.org:1337/announce
udp://denis.stalker.upeer.me:6969/announce
udp://tracker.internetwarriors.net:1337
udp://9.rarbg.me:2720/announce
udp://explodie.org:6969/announce
udp://tracker.cyberia.is:6969/announce
udp://thetracker.org/announce
udp://open.demonii.si:1337/announce

Torrent File Content

  • Dark City (1998) (1080p BDRip x265 10bit DTS-HD MA 7.1 - xtrem3x) [TAoE].mkv (8.2 GB)

Related torrents

Torrent Name Added Size Seed Leech
9 months ago 3.7 GB 141 59
7 months ago 4.5 GB 80 40
5 days ago 1015.6 MB 80 19
1 year ago 3.1 GB 46 34
4 years ago 557.3 MB 39 8


Latest Searches