Color.Out.of.Space.2019.1080p.WEBRip.DD5.1.x264-CM


    Seeders : 37      Leechers : 22

Movie : Color Out of Space
Downloads : 30
Language : English
Genres : Horror,Science Fiction,
Release date : 2019
Summary : A story of cosmic terror about The Gardners, a family who moves to a remote farmstead in rural New England to escape the hustle of the 21st century. They are busy adapting to their new life when a meteorite crashes into their front yard. The mysterious aerolite seems to melt into the earth, infecting both the land and the properties of space-time with a strange, otherworldly color. To their horror, the Gardner family discover that this alien force is gradually mutating every life form that it touches...including them.




Description



Plot: A story of cosmic terror about The Gardners, a family who moves to a remote farmstead in rural New England to escape the hustle of the 21st century. They are busy adapting to their new life when a meteorite crashes into their front yard. The mysterious aerolite seems to melt into the earth, infecting both the land and the properties of space-time with a strange, otherworldly color. To their horror, the Gardner family discover that this alien force is gradually mutating every life form that it touches…including them.

Genre: Horror | Sci-Fi
IMDB Rating: 6.3/10 From 4,786 Users
Directed by: Richard Stanley
Starring: Nicolas Cage , Joely Richardson , Madeleine Arthur , Elliot Knight

Video
ID : 1
Format : AVC
Format/Info : Advanced Video Codec
Format profile : [email protected]
Format settings : CABAC / 2 Ref Frames
Format settings, CABAC : Yes
Format settings, Reference frames : 2 frames
Codec ID : V_MPEG4/ISO/AVC
Duration : 1 h 50 min
Bit rate : 5 361 kb/s
Width : 1 920 pixels
Height : 1 080 pixels
Display aspect ratio : 16:9
Frame rate mode : Constant
Frame rate : 24.000 FPS
Color space : YUV
Chroma subsampling : 4:2:0
Bit depth : 8 bits
Scan type : Progressive
Bits/(Pixel*Frame) : 0.108
Stream size : 4.13 GiB (93%)
Writing library : x264 core 155 r2901 7d0ff22
Default : Yes
Forced : No
Color range : Limited
Color primaries : BT.709
Transfer characteristics : BT.709
Matrix coefficients : BT.709

Audio
ID : 2
Format : AC-3
Format/Info : Audio Coding 3
Commercial name : Dolby Digital
Codec ID : A_AC3
Duration : 1 h 50 min
Bit rate mode : Constant
Bit rate : 384 kb/s
Channel(s) : 6 channels
Channel layout : L R C LFE Ls Rs
Sampling rate : 48.0 kHz
Frame rate : 31.250 FPS (1536 SPF)
Bit depth : 16 bits
Compression mode : Lossy
Stream size : 303 MiB (7%)
Language : English
Service kind : Complete Main
Default : Yes
Forced : No




Trackers List

Tracker Name
http://tracker.trackerfix.com:80/announce
udp://9.rarbg.me:2790/announce
udp://9.rarbg.to:2740/announce

Torrent File Content

Color.Out.of.Space.2019.1080p.WEBRip.DD5.1.x264-CM
  • Color.Out.of.Space.2019.1080p.WEBRip.DD5.1.x264-CM.mkv (4.4 GB)
  • RARBG.txt (0.0 KB)

Related torrents

Torrent Name Added Size Seed Leech
1Yesterday 2 GB 1416 580
1Yesterday 1013.2 MB 1280 561
26 days ago 797.4 MB 249 53
26 days ago 1.5 GB 233 55
26 days ago 2.8 GB 202 61


Latest Searches