Chris Packham Forever Punk (1280x720p HD, 50fps, soft Eng subs)


    Seeders : 1      Leechers : 1

Downloads : 28
Language : English




Description

Chris Packham Forever Punk (1280x720p HD, 50fps, soft Eng subs)

Chris Packham, environmentalist and life-long punk, reveals how, as a teenager with undiagnosed Asperger's, punk rock may have saved his life. By giving him a purpose, he was able to harness his creativity, which led to him becoming a TV presenter with a determination to champion wildlife.

Now more than 40 years on, as Chris goes to Buckingham Palace to receive a CBE for services to the environment, he asks himself if he has, over the years, turned into the type of 'establishment figure' that his 17-year-old self would have hated?

In a highly personal and revelatory film, Chris sets out to question both himself and other former punks who, like him, rocked against racism, fought for gay rights and caused their parents untold grief, to discover if the values they all believed in still hold true today.

Chris meets some of the legends at the heart of the movement, including punk icon Jordan Mooney who was known as punk's first muse, artist Jamie Reid who designed the Sex Pistols' record covers, The Clash's first drummer and now chiropractor Terry Chimes, chart-topping vicar Rev Richard Coles and gay rights campaigner and Radio 6 DJ Tom Robinson.

He also meets Joe Talbot, lead singer of indie band Idles at the famous punk venue the 100 Club and even hooks up with his own punk band, The Titanic Survivors, who he left in 1978. They have since reformed and are still playing some of the songs that Chris wrote.

Chris concludes that the spirit of punk perhaps lives on not just in the music but in the rebellious spirit of the young and is still at the heart of many modern-day protests.

First broadcast: 10 January 2020
Duration: 1 hour

Torrent dead? Request reseed at torrentgalaxy.org - or ask at elsonroa at tutanota.com



Media info:-
General
Format : MPEG-4
Format profile : Base Media
Codec ID : isom (isom/iso2/avc1/mp41)
File size : 2.12 GiB
Duration : 59mn 31s
Overall bit rate mode : Variable
Overall bit rate : 5 103 Kbps


Video
ID : 1
Format : AVC
Format/Info : Advanced Video Codec
Format profile : [email protected]
Format settings, CABAC : Yes
Format settings, ReFrames : 4 frames
Codec ID : avc1
Codec ID/Info : Advanced Video Coding
Duration : 59mn 31s
Bit rate : 4 967 Kbps
Width : 1 280 pixels
Height : 720 pixels
Display aspect ratio : 16:9
Frame rate mode : Constant
Frame rate : 50.000 fps
Color space : YUV
Chroma subsampling : 4:2:0
Bit depth : 8 bits
Scan type : Progressive
Bits/(Pixel*Frame) : 0.108
Stream size : 2.07 GiB (97%)
Encoded date : UTC 1904-01-01 00:00:00
Tagged date : UTC 1904-01-01 00:00:00
Color range : Limited
Color primaries : BT.709
Transfer characteristics : BT.709
Matrix coefficients : BT.709

Audio
ID : 2
Format : AAC
Format/Info : Advanced Audio Codec
Format profile : LC
Codec ID : 40
Duration : 59mn 31s
Bit rate mode : Variable
Bit rate : 128 Kbps
Maximum bit rate : 141 Kbps
Channel(s) : 2 channels
Channel positions : Front: L R
Sampling rate : 48.0 KHz
Frame rate : 46.875 fps (1024 spf)
Compression mode : Lossy
Stream size : 54.5 MiB (3%)
Language : English


Trackers List

Tracker Name
udp://explodie.org:6969/announce
udp://open.stealth.si:80/announce
udp://ipv4.tracker.harry.lu:80/announce
udp://tracker.uw0.xyz:6969/announce
udp://retracker.akado-ural.ru:80/announce
udp://tracker-udp.gbitt.info:80/announce
http://tracker.nyap2p.com:8080/announce
udp://opentracker.i2p.rocks:6969/announce
udp://p4p.arenabg.com:1337/announce
udp://zephir.monocul.us:6969/announce

Torrent File Content

Chris Packham Forever Punk
  • About this torrent.txt (3.0 KB)
  • Chris Packham Forever Punk.jpg (906.0 KB)
  • Chris Packham Forever Punk.mp4 (2.1 GB)
  • Chris Packham Forever Punk.srt (140.8 KB)
  • Downloaded from Demonoid - www.dnoid.is.txt (0.1 KB)
  • If this torrent is dead.txt (0.1 KB)
  • Torrent Downloaded From 1337x.to.txt (0.0 KB)
  • [TGx]Downloaded from torrentgalaxy.to.txt (0.5 KB)


Latest Searches