Berserk.L.Epoca.D.Oro.Capitolo.I.1080p.x264.ITA.JAP.MadHex


    Seeders : 1      Leechers : 0

Downloads : 7
Language : Italian
tag : anime,x264,1080p,ita,jap,madhex,




Description




[INFO]

Regia: Toshiyuki Kubooka
Soggetto: Kentaro Miura - (manga)
Sceneggiatura: Ichirô OhkôChi
Musiche: Shirô Sagisu
Altri titoli: Berserk: The Golden Age Arc - The Egg of the King
Berserk - Das goldene Zeitalter
Berserk Ôgon Jidai-Hen I: Haô no Tamago
Durata: 85'
Colore: C
Genere: ANIMAZIONE, FANTASY, AVVENTURA
Specifiche tecniche: (2K), 35 MM/D-CINEMA (1:2.35)
Tratto da: manga omonimo di Kentaro Miura
Produzione: STUDIO 4°C, BEYOND C., LUCENT PICTURES ENTERTAINMENT
Distribuzione: THE SPACE CINEMA EXTRA (2013); DVD E BLU-RAY: YAMATO VIDEO (2012)
Vietato 14
Data uscita 14 Ottobre 2013


[TRAMA]

Guts è un mercenario solitario che vive ramingo e si fida solo della sua spada. nelle sue peregrinazioni, Guts giunge in un territorio dilaniato da oltre cento anni di guerra e, ben presto, si mette in evidenza per le sue abilità di combattente catturando l'attenzione di Griffith, capo di un gruppo di mercenari noto come la "Banda del Falco". Guts entrerà così a far parte del gruppo e permetterà a Griffith di diventare il leader di uno degli eserciti più potenti del Regno di Mezzo. La sua scelta, però, porterà entrambi verso un destino spaventoso...

[SCREENSHOT]





[REPORT]

Code:


Video
ID : 1
Format : AVC
Format/Info : Advanced Video Codec
Format profile : [email protected]
Format settings : CABAC / 6 Ref Frames
Format settings, CABAC : Yes
Format settings, Reference frames : 6 frames
Codec ID : avc1
Codec ID/Info : Advanced Video Coding
Duration : 1 h 16 min
Bit rate : 4 409 kb/s
Width : 1 904 pixels
Height : 816 pixels
Display aspect ratio : 2.35:1
Frame rate mode : Constant
Frame rate : 23.976 (24000/1001) FPS
Color space : YUV
Chroma subsampling : 4:2:0
Bit depth : 8 bits
Scan type : Progressive
Bits/(Pixel*Frame) : 0.118
Stream size : 2.37 GiB (88%)
Writing library : x264 core 148 r2795 aaa9aa8
Encoding settings : cabac=1 / ref=6 / deblock=1:1:1 / analyse=0x3:0x113 / me=hex / subme=7 / psy=1 / psy_rd=0.40:0.00 / mixed_ref=1 / me_range=16 / chroma_me=1 / trellis=1 / 8x8dct=1 / cqm=0 / deadzone=21,11 / fast_pskip=1 / chroma_qp_offset=-2 / threads=12 / lookahead_threads=2 / sliced_threads=0 / nr=0 / decimate=1 / interlaced=0 / bluray_compat=0 / constrained_intra=0 / bframes=5 / b_pyramid=2 / b_adapt=1 / b_bias=0 / direct=1 / weightb=1 / open_gop=0 / weightp=2 / keyint=250 / keyint_min=23 / scenecut=40 / intra_refresh=0 / rc_lookahead=40 / rc=crf / mbtree=1 / crf=15.0 / qcomp=0.60 / qpmin=0 / qpmax=69 / qpstep=4 / ip_ratio=1.40 / aq=1:0.60
Language : Italian
Codec configuration box : avcC

Audio #1
ID : 2
Format : AAC LC
Format/Info : Advanced Audio Codec Low Complexity
Codec ID : mp4a-40-2
Duration : 1 h 16 min
Bit rate mode : Constant
Bit rate : 198 kb/s
Channel(s) : 6 channels
Channel layout : C L R Ls Rs LFE
Sampling rate : 48.0 kHz
Frame rate : 46.875 FPS (1024 SPF)
Compression mode : Lossy
Stream size : 109 MiB (4%)
Title : DTS 5.1
Language : Italian
Default : Yes
Alternate group : 1

Audio #2
ID : 3
Format : AAC LC
Format/Info : Advanced Audio Codec Low Complexity
Codec ID : mp4a-40-2
Duration : 1 h 16 min
Bit rate mode : Constant
Bit rate : 198 kb/s
Channel(s) : 6 channels
Channel layout : C L R Ls Rs LFE
Sampling rate : 48.0 kHz
Frame rate : 46.875 FPS (1024 SPF)
Compression mode : Lossy
Stream size : 109 MiB (4%)
Title : Ac3 5.1
Language : Italian
Default : No
Alternate group : 1

Audio #3
ID : 4
Format : AAC LC
Format/Info : Advanced Audio Codec Low Complexity
Codec ID : mp4a-40-2
Duration : 1 h 16 min
Duration_LastFrame : -11 ms
Bit rate mode : Constant
Bit rate : 197 kb/s
Channel(s) : 6 channels
Channel layout : C L R Ls Rs LFE
Sampling rate : 48.0 kHz
Frame rate : 46.875 FPS (1024 SPF)
Compression mode : Lossy
Stream size : 109 MiB (4%)
Title : Ac3 5.1
Language : Japanese
Default : No
Alternate group : 1








Trackers List

Tracker Name
http://bobbialbano.com:6969/announce
http://explodie.org:6969/announce
http://h4.trakx.nibba.trade:80/announce
http://retracker.sevstar.net:2710/announce
http://0205.uptm.ch:6969/announce
http://share.camoe.cn:8080/announce
http://t.nyaatracker.com/announce
http://t.nyaatracker.com:80/announce
http://t.overflow.biz:6969/announce
http://torrenttracker.nwc.acsalaska.net:6969/announce
http://pow7.com:80/announce
http://tracker.anonwebz.xyz:8080/announce
http://tracker.bt4g.com:2095/announce
http://tracker.files.fm:6969/announce
http://tracker.gbitt.info:80/announce
http://vpn.flying-datacenter.de:6969/announce
http://vps02.net.orel.ru:80/announce
https://1337.abcvg.info:443/announce
https://tracker.imgoingto.icu:443/announce
https://tracker.nitrix.me:443/announce
https://tracker.tamersunion.org:443/announce
https://trakx.herokuapp.com:443/announce
https://w.wwwww.wtf:443/announce
udp://9.rarbg.com:2710/announce
udp://9.rarbg.to:2710/announce
udp://9.rarbg.to:2720/announce
udp://9.rarbg.to:2730/announce
udp://9.rarbg.to:2740/announce
udp://9.rarbg.to:2770/announce
udp://9.rarbg.to:2790/announce
udp://exodus.desync.com:6969/announce
udp://explodie.org:6969/announce
udp://ipv4.tracker.harry.lu:80/announce
udp://open.stealth.si:80/announce
udp://opentor.org:2710/announce
udp://p4p.arenabg.com:1337/announce
udp://retracker.lanta-net.ru:2710/announce
udp://tracker.cyberia.is:6969/announce
udp://tracker.leechers-paradise.org:6969/announce
udp://tracker.moeking.me:6969/announce
udp://tracker.open-internet.nl:6969/announce
udp://tracker.openbittorrent.com:80/announce
udp://tracker.opentrackr.org:1337/announce
udp://tracker.tiny-vps.com:6969/announce
udp://tracker.torrent.eu.org:451/announce
udp://tracker.yoshi210.com:6969/announce

Torrent File Content

  • Berserk.L.Epoca.D.Oro.Capitolo.I.1080p.x264.ITA.JAP.MadHex.mp4 (2.7 GB)


Latest Searches