Baki.2018.S01-S02.720p.NF.WEB-DL.ROSubbed-ExtremlymTorrents


    Seeders : 4      Leechers : 7

Downloads : 55
Language : Japanese




Description



Campionul de arte marțiale Baki Hanma se antrenează intens pentru a-și depăși legendarul tată, însă cinci condamnați violenți vin în Tokyo pentru a-l provoca la luptă.

https://www.netflix.com/ro/title/80204451
https://www.imdb.com/title/tt6357658/






[MediaInfo]
General
Complete name : BAKI\Sezonul 1\BAKI - s01e01 Sincronizare.mp4
Format : MPEG-4
Format profile : Base Media
Codec ID : isom (isom/iso2/avc1/mp41)
File size : 195 MiB
Duration : 23 min 44 s
Overall bit rate : 1 149 kb/s
Collection : BAKI
Season : 1
Part : 1
Track name : s01e01 Sincronizare
Performer : BAKI
ContentType : TV Show
Writing application : Lavf58.29.100
Comment : Tokugawa, părintele luptelor ilegale, îl avertizează pe campionul Baki privind evadarea și venirea la Tokyo a cinci condamnați la moarte din diverse țări.

Video
ID : 1
Format : AVC
Format/Info : Advanced Video Codec
Format profile : [email protected]
Format settings : CABAC / 2 Ref Frames
Format settings, CABAC : Yes
Format settings, Reference frames : 2 frames
Codec ID : avc1
Codec ID/Info : Advanced Video Coding
Duration : 23 min 44 s
Bit rate : 1 014 kb/s
Width : 1 280 pixels
Height : 720 pixels
Display aspect ratio : 16:9
Frame rate mode : Constant
Frame rate : 25.000 FPS
Color space : YUV
Chroma subsampling : 4:2:0
Bit depth : 8 bits
Scan type : Progressive
Bits/(Pixel*Frame) : 0.044
Stream size : 172 MiB (88%)
Writing library : x264 core 157 r2969 d4099dd
Encoding settings : cabac=1 / ref=1 / deblock=1:0:0 / analyse=0x3:0x3 / me=dia / subme=3 / psy=1 / psy_rd=1.00:0.00 / mixed_ref=0 / me_range=16 / chroma_me=1 / trellis=0 / 8x8dct=1 / cqm=0 / deadzone=21,11 / fast_pskip=1 / chroma_qp_offset=0 / threads=8 / lookahead_threads=2 / sliced_threads=0 / nr=0 / decimate=1 / interlaced=0 / bluray_compat=0 / constrained_intra=0 / bframes=3 / b_pyramid=0 / b_adapt=1 / b_bias=0 / direct=1 / weightb=1 / open_gop=0 / weightp=2 / keyint=250 / keyint_min=25 / scenecut=40 / intra_refresh=0 / rc_lookahead=0 / rc=crf / mbtree=0 / crf=24.0 / qcomp=0.60 / qpmin=10 / qpmax=51 / qpstep=4 / vbv_maxrate=3000 / vbv_bufsize=3000 / crf_max=0.0 / nal_hrd=none / filler=0 / ip_ratio=0.71 / pb_ratio=1.30 / aq=1:1.00
Codec configuration box : avcC

Audio
ID : 2
Format : AAC LC
Format/Info : Advanced Audio Codec Low Complexity
Codec ID : mp4a-40-2
Duration : 23 min 44 s
Duration_LastFrame : -1 ms
Bit rate mode : Constant
Bit rate : 128 kb/s
Channel(s) : 2 channels
Channel layout : L R
Sampling rate : 44.1 kHz
Frame rate : 43.066 FPS (1024 SPF)
Compression mode : Lossy
Stream size : 21.8 MiB (11%)
Default : Yes
Alternate group : 1


[/MediaInfo]


Trackers List

Tracker Name
udp://extremlymtorrents.ws:9999/annouce
udp://tracker.leechers-paradise.org:6969/announce
udp://tracker.coppersurfer.tk:6969/announce
udp://tracker.leechers-paradise.org:6969/announce
udp://tracker.iamhansen.xyz:2000/announce
udp://denis.stalker.upeer.me:6969/announce
udp://tracker.torrent.eu.org:451/announce
udp://tracker.opentrackr.org:1337/announce
http://tracker.tvunderground.org.ru:3218/announce
udp://open.demonii.si:1337/announce
udp://exodus.desync.com:6969/announce
udp://tracker.tiny-vps.com:6969/announce
udp://open.stealth.si:80/announce
http://tracker3.itzmx.com:8080/announce
http://91.217.91.21:3218/announce
http://tracker.yoshi210.com:6969/announce
http://tracker2.itzmx.com:6961/announce

Torrent File Content

BAKI screens
  • BAKI - s01e01 Sincronizare-2.jpeg (126.6 KB)
  • BAKI - s01e01 Sincronizare-3.jpeg (121.0 KB)
  • BAKI - s01e01 Sincronizare-1.jpeg (101.6 KB)
Sezonul 1
  • BAKI - s01e10 Duel în aer.mp4 (202.5 MB)
  • BAKI - s01e01 Sincronizare.mp4 (195.0 MB)
  • BAKI - s01e08 Un meci vs. o luptă pe bune.mp4 (186.5 MB)
  • BAKI - s01e07 Echipa supremă.mp4 (177.4 MB)
  • BAKI - s01e11 Ucigașul de tigri.mp4 (177.2 MB)
  • BAKI - s01e03 Au venit în sfârșit!.mp4 (175.9 MB)
  • BAKI - s01e09 Furia membrilor Shin Shin Kai.mp4 (173.7 MB)
  • BAKI - s01e05 Vrei să continui.mp4 (171.9 MB)
  • BAKI - s01e06 Raportul sergentului Katahira.mp4 (171.4 MB)
  • BAKI - s01e04 Începe lupta.mp4 (163.7 MB)
  • BAKI - s01e02 Arte marțiale negre.mp4 (158.8 MB)
  • BAKI - s01e12 Bomboane.mp4 (156.7 MB)
  • BAKI - s01e13 Dl Oliva.mp4 (142.7 MB)
Sezonul 2
  • BAKI - s02e14 Libertate negarantată.mp4 (210.3 MB)
  • BAKI - s02e21 Pedeapsa.mp4 (196.2 MB)
  • BAKI - s02e18 Mulțumiri.mp4 (193.0 MB)
  • BAKI - s02e23 Adevăratul atac.mp4 (192.1 MB)
  • BAKI - s02e20 Saga.mp4 (191.4 MB)
  • BAKI - s02e25 Zeul și diavolul.mp4 (184.0 MB)
  • BAKI - s02e16 Lovitura.mp4 (181.4 MB)
  • BAKI - s02e22 Înfruntarea.mp4 (176.4 MB)
  • BAKI - s02e15 Masă musculară uriașă.mp4 (164.5 MB)
  • BAKI - s02e19 Recunoșterea înfrângerii.mp4 (155.0 MB)
  • BAKI - s02e26 Turneul.mp4 (154.6 MB)
  • BAKI - s02e17 Tată!.mp4 (147.7 MB)
  • BAKI - s02e24 Înfrângerea.mp4 (145.4 MB)
  • poster.jpg (188.3 KB)
  • mediainfo.txt (3.9 KB)
  • Torrent downloaded from ExtremlymTorrents.ws.URL (0.2 KB)
  • readme.txt (0.0 KB)


Latest Searches