Ayo - Royal (2020) [96hz - 24bit]


    Seeders : 7      Leechers : 4

Downloads : 92
Language : English
tag : was95,lossless,music,




Description



Quality-Lossless
Release-2020
Duration-00:51:06
File Size-1.06 GB
Genre-R&B
Cover Size-1400px

----------------------------------------------------------------------------------------------
Analyzed: Royal / Artist: Ayo
----------------------------------------------------------------------------------------------
DR Peak RMS Duration Title [codec]
----------------------------------------------------------------------------------------------
DR8 -0.26 dB -11.13 dB 4:25 01 - Rest Assured [flac]
DR7 -0.10 dB -9.70 dB 4:07 02 - Beautiful [flac]
DR9 -0.25 dB -11.71 dB 3:16 03 - Fool's Gold [flac]
DR8 -0.18 dB -11.20 dB 4:13 04 - Né quelque part [flac]
DR8 -0.19 dB -10.80 dB 4:13 05 - Rosie Blue [flac]
DR7 -0.22 dB -8.98 dB 5:11 06 - Throw It Away [flac]
DR8 -0.18 dB -12.93 dB 4:50 07 - Fix Me Up [flac]
DR9 -0.28 dB -12.20 dB 2:56 08 - Afro Blue [flac]
DR7 -0.19 dB -8.79 dB 3:43 09 - I'm in Love [flac]
DR7 -0.21 dB -9.30 dB 4:45 10 - Ocean [flac]
DR7 -0.17 dB -9.31 dB 4:20 11 - Just Like I Can't [flac]
DR8 -0.27 dB -12.28 dB 5:01 12 - Royal [flac]
----------------------------------------------------------------------------------------------
Number of files: 12
Official DR value: DR8

Sampling rate: 96000 Hz
Average bitrate: 2768kbs
Bits per sample: 24 bit


Trackers List

Tracker Name
udp://tracker.piratepublic.com:1337/announce
udp://tracker.pirateparty.gr:6969/announce
udp://tracker.coppersurfer.tk:6969/announce
udp://tracker.leechers-paradise.org:6969/announce
udp://9.rarbg.com:2710/announce
http://p4p.arenabg.com:1337/announce
http://explodie.org:6969/announce
udp://tracker.opentrackr.org:1337/announce
udp://exodus.desync.com:6969/announce
udp://tracker.leechers-paradise.org:6969/announce
udp://tracker.zer0day.to:1337/announce
udp://open.demonii.si:1337/announce
udp://exodus.desync.com:6969/announce
udp://tracker.iamhansen.xyz:2000/announce

Torrent File Content

Ayo - Royal (2020) [96hz - 24bit]
  • 01 - Rest Assured.flac (83.2 MB)
  • 02 - Beautiful.flac (83.1 MB)
  • 03 - Fool's Gold.flac (67.9 MB)
  • 04 - Né quelque part.flac (84.2 MB)
  • 05 - Rosie Blue.flac (87.5 MB)
  • 06 - Throw It Away.flac (101.9 MB)
  • 07 - Fix Me Up.flac (92.7 MB)
  • 08 - Afro Blue.flac (56.3 MB)
  • 09 - I'm in Love.flac (77.1 MB)
  • 10 - Ocean.flac (96.2 MB)
  • 11 - Just Like I Can't.flac (87.9 MB)
  • 12 - Royal.flac (95.2 MB)
  • art.jpg (1.3 MB)
  • cover.jpg (385.5 KB)
  • dr14.txt (1.4 KB)


Latest Searches