And You Thought There Is Never a Girl Online? (2016) [1080p x265 HEVC 10bit BluRay Dual Audio AAC] [Prof]


    Seeders : 15      Leechers : 30

Downloads : 30
Language : English




Description



Netoge no Yome wa Onnanoko ja Nai to Omotta?

Synopsis

After mustering up the courage to propose to a girl in an online game, naïve otaku Hideki "Rusian" Nishimura is devastated when she flat out rejects him. To make matters worse, the girl reveals that she is actually an older man in real life. With his dreams crushed and his heart broken, Rusian comes to an abrupt decision in the midst of his raging fit: he will never trust another girl in an online game again.

Years later, Rusian is now in a guild with three other players, one of whom possesses a female avatar by the name of "Ako." Ako is deeply in love with Rusian and wants to marry him. Although he entertains the possibility that she might be a guy, Rusian accepts her proposal, claiming that her gender doesn't matter as long as she is cute in the game. However, after a discussion between guild members that led to all of them having an offline meeting, Rusian finds out that Ako, along with the other members, are not just girls, but also his schoolmates.

[Written by MAL Rewrite]

Alternative Titles

English: And you thought there is never a girl online?
Synonyms: Net Game no Yome wa Onna no Ko ja Nai to Omotta?, NetoYome
Japanese: ネトゲの嫁は女の子じゃないと思った?

Information

Type: TV
Episodes: 12
Status: Finished Airing
Aired: Apr 7, 2016 to Jun 23, 2016
Premiered: Spring 2016
Broadcast: Thursdays at 23:00 (JST)
Producers: Sotsu, AT-X, Barnum Studio, DAX Production, ASCII Media Works, NBCUniversal Entertainment Japan, i0+, Medicos Entertainment, Radio Osaka
Licensors: Funimation
Studios: Project No.9
Source: Light novel
Genres: Game, Comedy, Romance, Ecchi, School
Duration: 24 min. per ep.
Rating: PG-13 - Teens 13 or older







Format                                   : Matroska
Format version                           : Version 4
File size                                : 431 MiB
Duration                                 : 24 min 11 s
Overall bit rate                         : 2 493 kb/s
Movie name                               : Never_Girl_Online_D1
Encoded date                             : UTC 2020-03-24 18:17:07
Writing application                      : mkvmerge v41.0.0 ('Smarra') 64-bit
Writing library                          : libebml v1.3.9 + libmatroska v1.5.2

Video
ID                                       : 1
Format                                   : HEVC
Format/Info                              : High Efficiency Video Coding
Format profile                           : Main [email protected]@Main
Codec ID                                 : V_MPEGH/ISO/HEVC
Duration                                 : 24 min 11 s
Bit rate                                 : 2 085 kb/s
Width                                    : 1 920 pixels
Height                                   : 1 080 pixels
Display aspect ratio                     : 16:9
Frame rate mode                          : Constant
Frame rate                               : 23.976 (24000/1001) FPS
Color space                              : YUV
Chroma subsampling                       : 4:2:0
Bit depth                                : 10 bits
Bits/(Pixel*Frame)                       : 0.042
Stream size                              : 361 MiB (84%)
Writing library                          : x265 3.3+1-g554c887ac:[Windows][MSVC 1924][64 bit] 10bit
Encoding settings                        : cpuid=1111039 / frame-threads=3 / numa-pools=12 / wpp / no-pmode / no-pme / no-psnr / no-ssim / log-level=2 / input-csp=1 / input-res=1920x1080 / interlace=0 / total-frames=34812 / level-idc=0 / high-tier=1 / uhd-bd=0 / ref=4 / no-allow-non-conformance / no-repeat-headers / annexb / no-aud / no-hrd / info / hash=0 / no-temporal-layers / open-gop / min-keyint=23 / keyint=250 / gop-lookahead=0 / bframes=8 / b-adapt=2 / b-pyramid / bframe-bias=0 / rc-lookahead=80 / lookahead-slices=6 / scenecut=40 / hist-scenecut=0 / radl=0 / no-splice / no-intra-refresh / ctu=64 / min-cu-size=8 / rect / no-amp / max-tu-size=32 / tu-inter-depth=1 / tu-intra-depth=1 / limit-tu=0 / rdoq-level=2 / dynamic-rd=0.00 / no-ssim-rd / signhide / no-tskip / nr-intra=0 / nr-inter=0 / no-constrained-intra / strong-intra-smoothing / max-merge=3 / limit-refs=3 / limit-modes / me=3 / subme=3 / merange=57 / temporal-mvp / no-frame-dup / no-hme / weightp / no-weightb / no-analyze-src-pics / deblock=0:0 / sao / no-sao-non-deblock / rd=4 / selective-sao=4 / no-early-skip / rskip / no-fast-intra / no-tskip-fast / no-cu-lossless / no-b-intra / no-splitrd-skip / rdpenalty=0 / psy-rd=2.00 / psy-rdoq=1.00 / no-rd-refine / no-lossless / cbqpoffs=0 / crqpoffs=0 / rc=crf / crf=19.0 / qcomp=0.60 / qpstep=4 / stats-write=0 / stats-read=0 / ipratio=1.40 / pbratio=1.30 / aq-mode=2 / aq-strength=0.80 / cutree / zone-count=0 / no-strict-cbr / qg-size=32 / no-rc-grain / qpmax=69 / qpmin=0 / no-const-vbv / sar=0 / overscan=0 / videoformat=5 / range=0 / colorprim=2 / transfer=2 / colormatrix=2 / chromaloc=0 / display-window=0 / cll=0,0 / min-luma=0 / max-luma=1023 / log2-max-poc-lsb=8 / vui-timing-info / vui-hrd-info / slices=1 / no-opt-qp-pps / no-opt-ref-list-length-pps / no-multi-pass-opt-rps / scenecut-bias=0.05 / hist-threshold=0.01 / no-opt-cu-delta-qp / no-aq-motion / no-hdr10 / no-hdr10-opt / no-dhdr10-opt / no-idr-recovery-sei / analysis-reuse-level=0 / analysis-save-reuse-level=0 / analysis-load-reuse-level=0 / scale-factor=0 / refine-intra=0 / refine-inter=0 / refine-mv=1 / refine-ctu-distortion=0 / no-limit-sao / ctu-info=0 / no-lowpass-dct / refine-analysis-type=0 / copy-pic=1 / max-ausize-factor=1.0 / no-dynamic-refine / no-single-sei / no-hevc-aq / no-svt / no-field / qp-adaptation-range=1.00 / no-scenecut-aware-qpconformance-window-offsets / right=0 / bottom=0
Default                                  : Yes
Forced                                   : No

Audio #1
ID                                       : 4
Format                                   : AAC LC
Format/Info                              : Advanced Audio Codec Low Complexity
Codec ID                                 : A_AAC-2
Duration                                 : 24 min 11 s
Bit rate                                 : 192 kb/s
Channel(s)                               : 2 channels
Channel layout                           : L R
Sampling rate                            : 48.0 kHz
Frame rate                               : 46.875 FPS (1024 SPF)
Compression mode                         : Lossy
Delay relative to video                  : 9 ms
Stream size                              : 33.1 MiB (8%)
Language                                 : English
Default                                  : Yes
Forced                                   : No

Audio #2
ID                                       : 5
Format                                   : AAC LC
Format/Info                              : Advanced Audio Codec Low Complexity
Codec ID                                 : A_AAC-2
Duration                                 : 24 min 11 s
Bit rate                                 : 196 kb/s
Channel(s)                               : 2 channels
Channel layout                           : L R
Sampling rate                            : 48.0 kHz
Frame rate                               : 46.875 FPS (1024 SPF)
Compression mode                         : Lossy
Delay relative to video                  : 9 ms
Stream size                              : 33.9 MiB (8%)
Language                                 : Japanese
Default                                  : No
Forced                                   : No

Text #1
ID                                       : 2
Format                                   : PGS
Muxing mode                              : zlib
Codec ID                                 : S_HDMV/PGS
Codec ID/Info                            : Picture based subtitle format used on BDs/HD-DVDs
Duration                                 : 23 min 54 s
Bit rate                                 : 52.7 kb/s
Count of elements                        : 829
Stream size                              : 9.01 MiB (2%)
Language                                 : English
Default                                  : No
Forced                                   : No

Text #2
ID                                       : 3
Format                                   : PGS
Muxing mode                              : zlib
Codec ID                                 : S_HDMV/PGS
Codec ID/Info                            : Picture based subtitle format used on BDs/HD-DVDs
Duration                                 : 20 min 12 s
Bit rate                                 : 3 975 b/s
Count of elements                        : 41
Stream size                              : 589 KiB (0%)
Language                                 : English
Default                                  : Yes
Forced                                   : No

Menu
00:00:00.000                             : en:Chapter 01
00:01:04.981                             : en:Chapter 02
00:11:50.000                             : en:Chapter 03
00:22:30.974                             : en:Chapter 04
00:24:00.939                             : en:Chapter 05

Source:





Coming soon:

4k UHD

Guardians of the Galaxy
Guardians of the Galaxy Vol. 2
Fury
Get Out

1080p

Kick Ass 2
Gravity
The Wolf of Wall Street

TV

Last Week Tonight (ongoing)
Workaholics S03

Anime

Mirai
Attack on Titan S03P02
Angel Beats
Fate/Zero
Wolf Children


Trackers List

Tracker Name
udp://tracker.coppersurfer.tk:6969/announce
udp://tracker.torrent.eu.org:451/announce
udp://tracker.tiny-vps.com:6969/announce
udp://denis.stalker.upeer.me:6969/announce
udp://tracker.cyberia.is:6969/announce
udp://open.stealth.si:80/announce
http://nyaa.tracker.wf:7777/announce

Torrent File Content

And You Thought There Is Never a Girl Online (2016) [1080p x265 HEVC 10bit BluRay Dual Audio AAC] [Prof]
  • [Prof] S01E12 - My Net Game Wife Is a Girl Online.mkv (479.0 MB)
  • [Prof] S01E02 - I Thought We Couldn`t Play Net Games at School.mkv (369.1 MB)
  • [Prof] S01E03 - I Thought Net Games and Reality Were Different.mkv (382.5 MB)
  • [Prof] S01E04 - I Thought Her Secret Wasn`t Going to Get Out.mkv (408.5 MB)
  • [Prof] S01E05 - I Thought Reincarnating Would Give Me My Big Chance.mkv (321.4 MB)
  • [Prof] S01E06 - I Thought If I Declared My Love, I Was Sure to Succeed.mkv (422.0 MB)
  • [Prof] S01E07 - I Thought If I Went to the Beach, I Would Become a Normie.mkv (405.6 MB)
  • [Prof] S01E08 - I Thought I Was Giving Up Being a Net Game Husband.mkv (331.4 MB)
  • [Prof] S01E09 - I Thought If We Stayed Over, We Would Get Along Better.mkv (346.4 MB)
  • [Prof] S01E10 - I Thought We Would Do Our Best at the Culture Festival.mkv (378.5 MB)
  • [Prof] S01E11 - I Thought We Could Win by Delegating to Others.mkv (426.6 MB)
  • [Prof] S01E01 - And You Thought There Is Never a Girl Online.mkv (431.4 MB)


Latest Searches