Altered.Carbon.Resleeved.1080p.x264.ITA.ENG.JAP.MadHex


    Seeders : 0      Leechers : 3

Downloads : 14
Language : Italian
tag : anime,x264,1080p,ita,jap,eng,madhex,




Description




[INFO]

Data di uscita: 19 Marzo 2020 (Italia, Streaming)
Genere: Animazione , Fantascienza , Azione
Anno: 2020
Regia: Yoshiyuki Okada
Attori: Ray Chase, Elizabeth Maxwell, Jamieson Price, Kaiji Tang, Doug Stone, Chris Conner
Paese: Giappone
Distribuzione: Netflix

[TRAMA]

Sul pianeta Latimer, Takeshi Kovacs deve proteggere una tatuatrice mentre indaga sulla morte di un boss della yakuza insieme al CTAC, che non scherza affatto.

[SCREENSHOT]





[REPORT]

Code:


Video
ID : 1
Format : AVC
Format/Info : Advanced Video Codec
Format profile : [email protected]
Format settings : CABAC / 4 Ref Frames
Format settings, CABAC : Yes
Format settings, Reference frames : 4 frames
Codec ID : avc1
Codec ID/Info : Advanced Video Coding
Duration : 1 h 14 min
Bit rate : 4 100 kb/s
Width : 1 920 pixels
Height : 1 080 pixels
Display aspect ratio : 16:9
Frame rate mode : Constant
Frame rate : 24.000 FPS
Color space : YUV
Chroma subsampling : 4:2:0
Bit depth : 8 bits
Scan type : Progressive
Bits/(Pixel*Frame) : 0.082
Stream size : 2.14 GiB (87%)
Writing library : x264 core 142 r2495 6a301b6
Encoding settings : cabac=1 / ref=2 / deblock=1:0:0 / analyse=0x3:0x113 / me=hex / subme=6 / psy=1 / psy_rd=1.00:0.00 / mixed_ref=1 / me_range=16 / chroma_me=1 / trellis=1 / 8x8dct=1 / cqm=0 / deadzone=21,11 / fast_pskip=1 / chroma_qp_offset=-2 / threads=12 / lookahead_threads=2 / sliced_threads=0 / nr=0 / decimate=1 / interlaced=0 / bluray_compat=0 / constrained_intra=0 / bframes=3 / b_pyramid=2 / b_adapt=1 / b_bias=0 / direct=1 / weightb=1 / open_gop=0 / weightp=1 / keyint=250 / keyint_min=24 / scenecut=40 / intra_refresh=0 / rc_lookahead=30 / rc=crf / mbtree=1 / crf=20.0 / qcomp=0.60 / qpmin=0 / qpmax=69 / qpstep=4 / ip_ratio=1.40 / aq=1:1.00
Codec configuration box : avcC

Audio #1
ID : 2
Format : AAC LC
Format/Info : Advanced Audio Codec Low Complexity
Codec ID : mp4a-40-2
Duration : 1 h 14 min
Duration_LastFrame : -11 ms
Bit rate mode : Constant
Bit rate : 198 kb/s
Channel(s) : 6 channels
Channel layout : C L R Ls Rs LFE
Sampling rate : 48.0 kHz
Frame rate : 46.875 FPS (1024 SPF)
Compression mode : Lossy
Stream size : 106 MiB (4%)
Language : Italian
Default : Yes
Alternate group : 1

Audio #2
ID : 3
Format : AAC LC
Format/Info : Advanced Audio Codec Low Complexity
Codec ID : mp4a-40-2
Duration : 1 h 14 min
Bit rate mode : Constant
Bit rate : 201 kb/s
Channel(s) : 6 channels
Channel layout : C L R Ls Rs LFE
Sampling rate : 48.0 kHz
Frame rate : 46.875 FPS (1024 SPF)
Compression mode : Lossy
Stream size : 107 MiB (4%)
Language : English
Default : No
Alternate group : 1

Audio #3
ID : 4
Format : AAC LC
Format/Info : Advanced Audio Codec Low Complexity
Codec ID : mp4a-40-2
Duration : 1 h 14 min
Bit rate mode : Constant
Bit rate : 200 kb/s
Channel(s) : 6 channels
Channel layout : C L R Ls Rs LFE
Sampling rate : 48.0 kHz
Frame rate : 46.875 FPS (1024 SPF)
Compression mode : Lossy
Stream size : 107 MiB (4%)
Language : Japanese
Default : No
Alternate group : 1








Trackers List

Tracker Name
http://0205.uptm.ch:6969/announce
http://bobbialbano.com:6969/announce
http://explodie.org:6969/announce
http://h4.trakx.nibba.trade:80/announce
http://retracker.sevstar.net:2710/announce
http://share.camoe.cn:8080/announce
http://t.nyaatracker.com/announce
http://t.nyaatracker.com:80/announce
http://t.overflow.biz:6969/announce
http://torrenttracker.nwc.acsalaska.net:6969/announce
http://pow7.com:80/announce
http://tracker.anonwebz.xyz:8080/announce
http://tracker.bt4g.com:2095/announce
http://tracker.files.fm:6969/announce
http://tracker.gbitt.info:80/announce
http://vpn.flying-datacenter.de:6969/announce
http://vps02.net.orel.ru:80/announce
https://1337.abcvg.info:443/announce
https://tracker.imgoingto.icu:443/announce
https://tracker.nitrix.me:443/announce
https://tracker.tamersunion.org:443/announce
https://trakx.herokuapp.com:443/announce
https://w.wwwww.wtf:443/announce
udp://9.rarbg.com:2710/announce
udp://9.rarbg.to:2710/announce
udp://9.rarbg.to:2720/announce
udp://9.rarbg.to:2730/announce
udp://9.rarbg.to:2740/announce
udp://9.rarbg.to:2770/announce
udp://9.rarbg.to:2790/announce
udp://exodus.desync.com:6969/announce
udp://explodie.org:6969/announce
udp://ipv4.tracker.harry.lu:80/announce
udp://open.stealth.si:80/announce
udp://opentor.org:2710/announce
udp://p4p.arenabg.com:1337/announce
udp://retracker.lanta-net.ru:2710/announce
udp://tracker.cyberia.is:6969/announce
udp://tracker.leechers-paradise.org:6969/announce
udp://tracker.moeking.me:6969/announce
udp://tracker.open-internet.nl:6969/announce
udp://tracker.openbittorrent.com:80/announce
udp://tracker.opentrackr.org:1337/announce
udp://tracker.tiny-vps.com:6969/announce
udp://tracker.torrent.eu.org:451/announce
udp://tracker.yoshi210.com:6969/announce

Torrent File Content

  • Altered.Carbon.Resleeved.1080p.x264.ITA.ENG.JAP.MadHex.mp4 (2.5 GB)


Latest Searches