Ah! My Goddess (2005) S01 [1080p x265 HEVC 10bit BluRay Dual Audio AAC] [Prof]


    Seeders : 32      Leechers : 12

Downloads : 157
Language : English




Description



Aa! Megami-sama!

Synopsis

In a world where humans can have their wish granted via the Goddess Help Hotline, a human, Keiichi Morisato, summons the Goddess Belldandy by accident and jokes that she should stay with him forever. Unfortunately for him, his "wish" is granted.

Suddenly, Keiichi is now living with this gorgeous woman all alone, causing him to be kicked out of the all-male dormitory he was staying in. But soon, after they find lodging in a Buddhist temple, Keiichi and Belldandy's relationship begins to blossom. Although they are both awkward and rather uncomfortable with one another at first, what awaits these two strangers could turn out to be an unexpected romance.

[Written by MAL Rewrite]

Alternative Titles

English: Ah! My Goddess
Synonyms: Ah! My Goddess! (TV)
Japanese: ああっ女神さまっ

Information

Type: TV
Episodes: 24
Status: Finished Airing
Aired: Jan 7, 2005 to Jul 8, 2005
Premiered: Winter 2005
Broadcast: Unknown
Producers: Bandai Visual, TBS
Licensors: Media Blasters, NYAV Post
Studios: AIC
Source: Manga
Genres: Comedy, Supernatural, Magic, Romance, Seinen
Duration: 24 min. per ep.
Rating: PG-13 - Teens 13 or older







Format : Matroska
Format version : Version 4
File size : 267 MiB
Duration : 24 min 11 s
Overall bit rate : 1 544 kb/s
Encoded date : UTC 2020-02-05 16:05:22
Writing application : mkvmerge v28.2.0 ('The Awakening') 64-bit
Writing library : libebml v1.3.6 + libmatroska v1.4.9
Writing frontend : StaxRip v2.0.0.0

Video
ID : 1
Format : HEVC
Format/Info : High Efficiency Video Coding
Format profile : Main [email protected]@Main
Codec ID : V_MPEGH/ISO/HEVC
Duration : 24 min 11 s
Bit rate : 1 066 kb/s
Width : 1 920 pixels
Height : 1 080 pixels
Display aspect ratio : 16:9
Frame rate mode : Constant
Frame rate : 23.976 (24000/1001) FPS
Color space : YUV
Chroma subsampling : 4:2:0
Bit depth : 10 bits
Bits/(Pixel*Frame) : 0.021
Stream size : 184 MiB (69%)
Writing library : x265 3.2.1+3-b4b2ecac21f6:[Windows][MSVC 1924][64 bit] 10bit
Encoding settings : cpuid=1111039 / frame-threads=2 / numa-pools=4 / wpp / no-pmode / no-pme / no-psnr / no-ssim / log-level=2 / input-csp=1 / input-res=1920x1080 / interlace=0 / total-frames=34792 / level-idc=0 / high-tier=1 / uhd-bd=0 / ref=4 / no-allow-non-conformance / no-repeat-headers / annexb / no-aud / no-hrd / info / hash=0 / no-temporal-layers / open-gop / min-keyint=23 / keyint=250 / gop-lookahead=0 / bframes=8 / b-adapt=2 / b-pyramid / bframe-bias=0 / rc-lookahead=80 / lookahead-slices=6 / scenecut=40 / radl=0 / no-splice / no-intra-refresh / ctu=64 / min-cu-size=8 / rect / no-amp / max-tu-size=32 / tu-inter-depth=1 / tu-intra-depth=1 / limit-tu=0 / rdoq-level=2 / dynamic-rd=0.00 / no-ssim-rd / signhide / no-tskip / nr-intra=0 / nr-inter=0 / no-constrained-intra / strong-intra-smoothing / max-merge=3 / limit-refs=3 / limit-modes / me=3 / subme=3 / merange=57 / temporal-mvp / no-hme / weightp / no-weightb / no-analyze-src-pics / deblock=0:0 / sao / no-sao-non-deblock / rd=4 / selective-sao=4 / no-early-skip / rskip / no-fast-intra / no-tskip-fast / no-cu-lossless / no-b-intra / no-splitrd-skip / rdpenalty=0 / psy-rd=2.00 / psy-rdoq=1.00 / no-rd-refine / no-lossless / cbqpoffs=0 / crqpoffs=0 / rc=crf / crf=21.0 / qcomp=0.60 / qpstep=4 / stats-write=0 / stats-read=0 / ipratio=1.40 / pbratio=1.30 / aq-mode=2 / aq-strength=1.00 / cutree / zone-count=0 / no-strict-cbr / qg-size=32 / no-rc-grain / qpmax=69 / qpmin=0 / no-const-vbv / sar=0 / overscan=0 / videoformat=5 / range=0 / colorprim=2 / transfer=2 / colormatrix=2 / chromaloc=0 / display-window=0 / cll=0,0 / min-luma=0 / max-luma=1023 / log2-max-poc-lsb=8 / vui-timing-info / vui-hrd-info / slices=1 / no-opt-qp-pps / no-opt-ref-list-length-pps / no-multi-pass-opt-rps / scenecut-bias=0.00 / no-opt-cu-delta-qp / no-aq-motion / no-hdr / no-hdr-opt / no-dhdr10-opt / no-idr-recovery-sei / analysis-reuse-level=5 / scale-factor=0 / refine-intra=0 / refine-inter=0 / refine-mv=1 / refine-ctu-distortion=0 / no-limit-sao / ctu-info=0 / no-lowpass-dct / refine-analysis-type=0 / copy-pic=1 / max-ausize-factor=1.0 / no-dynamic-refine / no-single-sei / no-hevc-aq / no-svt / no-field / qp-adaptation-range=1.00
Default : Yes
Forced : No

Audio #1
ID : 2
Format : AAC LC
Format/Info : Advanced Audio Codec Low Complexity
Codec ID : A_AAC-2
Duration : 24 min 11 s
Bit rate : 192 kb/s
Channel(s) : 2 channels
Channel layout : L R
Sampling rate : 48.0 kHz
Frame rate : 46.875 FPS (1024 SPF)
Compression mode : Lossy
Delay relative to video : 20 ms
Stream size : 33.3 MiB (12%)
Language : English
Default : No
Forced : No

Audio #2
ID : 3
Format : AAC LC
Format/Info : Advanced Audio Codec Low Complexity
Codec ID : A_AAC-2
Duration : 24 min 11 s
Bit rate : 265 kb/s
Channel(s) : 2 channels
Channel layout : L R
Sampling rate : 48.0 kHz
Frame rate : 46.875 FPS (1024 SPF)
Compression mode : Lossy
Delay relative to video : 20 ms
Stream size : 45.1 MiB (17%)
Language : Japanese
Default : No
Forced : No

Text #1
ID : 4
Format : PGS
Muxing mode : zlib
Codec ID : S_HDMV/PGS
Codec ID/Info : Picture based subtitle format used on BDs/HD-DVDs
Duration : 24 min 10 s
Bit rate : 44.9 kb/s
Count of elements : 539
Stream size : 7.75 MiB (3%)
Language : English
Default : No
Forced : No

Text #2
ID : 5
Format : PGS
Muxing mode : zlib
Codec ID : S_HDMV/PGS
Codec ID/Info : Picture based subtitle format used on BDs/HD-DVDs
Duration : 24 min 10 s
Bit rate : 3 566 b/s
Count of elements : 57
Stream size : 631 KiB (0%)
Language : English
Default : Yes
Forced : No

Menu
00:00:00.000 : en:00:00:00.000
00:01:30.048 : en:00:01:30.048
00:12:20.073 : en:00:12:20.073
00:22:25.094 : en:00:22:25.094
00:23:55.059 : en:00:23:55.059

Source:



Trackers List

Tracker Name
udp://tracker.coppersurfer.tk:6969/announce
udp://tracker.torrent.eu.org:451/announce
udp://tracker.tiny-vps.com:6969/announce
udp://denis.stalker.upeer.me:6969/announce
udp://tracker.cyberia.is:6969/announce
udp://open.stealth.si:80/announce
http://nyaa.tracker.wf:7777/announce

Torrent File Content

Ah! My Goddess (2005) [1080p x265 HEVC 10bit BluRay Dual Audio AAC] [Prof]
  • [Prof] S01E15 - Ah! My Heart Was Stolen By a Goddess!.mkv (333.8 MB)
  • [Prof] S01E02 - Ah! Those Who Believe Shall Find Salvation_new.mkv (188.7 MB)
  • [Prof] S01E03 - Ah! Apprenticeship, Home, and the Goddess.mkv (253.5 MB)
  • [Prof] S01E04 - Ah! The Queen and the Goddess!.mkv (231.1 MB)
  • [Prof] S01E05 - Ah! Living Under One Roof Together!.mkv (209.0 MB)
  • [Prof] S01E06 - Ah! A Blessing in Every Bargain.mkv (197.9 MB)
  • [Prof] S01E07 - Ah! Where to Confess One's Love!.mkv (198.1 MB)
  • [Prof] S01E08 - Ah! Can You Pass the Love Test With Those Low Scores!.mkv (190.5 MB)
  • [Prof] S01E09 - Ah! The Queen and the Goddess's Secret!.mkv (267.3 MB)
  • [Prof] S01E10 - Ah! Can the Auto Club Triumph.mkv (232.2 MB)
  • [Prof] S01E11 - Ah! A Demon has Come and is Creating Calamity!.mkv (248.2 MB)
  • [Prof] S01E12 - Ah! Compare and Contrast Goddesses and Queens.mkv (204.7 MB)
  • [Prof] S01E13 - Ah! Who Does Big Sister Belong To.mkv (244.3 MB)
  • [Prof] S01E14 - Ah! Teaching a Lesson Called Competition!.mkv (224.8 MB)
  • [Prof] S01E01 - Ah! You're a Goddess..mkv (267.2 MB)
  • [Prof] S01E16 - Ah! Catastrophe Arrives. An Auspicious Sign Stands.mkv (250.4 MB)
  • [Prof] S01E17 - Ah! What Are Ability and Effort.mkv (236.1 MB)
  • [Prof] S01E18 - Ah! Confess Your Feelings Under the Moon.mkv (243.7 MB)
  • [Prof] S01E19 - Ah! Don't Look At Me Like That.mkv (216.5 MB)
  • [Prof] S01E20 - Ah! Save the Goddess, If You're a Man!.mkv (235.1 MB)
  • [Prof] S01E21 - Ah! The One I Yearn For Is A White-Winged Angel!.mkv (230.8 MB)
  • [Prof] S01E22 - Ah! A Devil's Whisper, Along With a Pot.mkv (250.6 MB)
  • [Prof] S01E23 - Ah! The Savior, Together With the Sound of a Flute.mkv (247.3 MB)
  • [Prof] S01E24 - Ah! Always With You.mkv (290.8 MB)


Latest Searches