2012 (2009) (1080p BDRip x265 10bit DTS-HD MA 5.1 - r0b0t) [TAoE].mkv


    Seeders : 4      Leechers : 16

Downloads : 29
Language : English
tag : Action,Adventure,Sci-Fi,1080p,10bit,x265,HEVC,




Description






2012 (2009) IMDB







Source


2012.2009.MULTI.REMUX.1080p.BluRay.AVC.DTS-HD.MA.5.1-LEGi0N

Media Information


General
Unique ID : 31681906597857741737834863065059593909 (0x17D5B698495FC69D8324859499FC8EB5)
Complete name : 2012 (2009) (1080p BDRip x265 10bit DTS-HD MA 5.1 - r0b0t) [TAoE].mkv
Format : Matroska
Format version : Version 4
File size : 6.58 GiB
Duration : 2 h 37 min
Overall bit rate mode : Variable
Overall bit rate : 5 970 kb/s
Writing application : Lavf58.29.100
Writing library : Lavf58.29.100
ErrorDetectionType : Per level 1

Video
ID : 1
Format : HEVC
Format/Info : High Efficiency Video Coding
Format profile : Main [email protected]@Main
Codec ID : V_MPEGH/ISO/HEVC
Duration : 2 h 37 min
Bit rate : 3 517 kb/s
Width : 1 920 pixels
Height : 1 080 pixels
Display aspect ratio : 16:9
Frame rate mode : Constant
Frame rate : 23.976 (24000/1001) FPS
Color space : YUV
Chroma subsampling : 4:2:0
Bit depth : 10 bits
Bits/(Pixel*Frame) : 0.071
Stream size : 3.88 GiB (59%)
Title : Encoded by r0b0t for TAoE using Shinguru V1.2
Writing library : x265 3.2+35-acc5d16999e2:[Windows][GCC 9.2.1][64 bit] 10bit
Encoding settings : cpuid=1111039 / frame-threads=5 / numa-pools=12,12,12,12 / wpp / no-pmode / no-pme / no-psnr / no-ssim / log-level=2 / input-csp=1 / input-res=1920x1080 / interlace=0 / total-frames=0 / level-idc=0 / high-tier=1 / uhd-bd=0 / ref=4 / no-allow-non-conformance / no-repeat-headers / annexb / no-aud / no-hrd / info / hash=0 / no-temporal-layers / open-gop / min-keyint=23 / keyint=250 / gop-lookahead=0 / bframes=8 / b-adapt=2 / b-pyramid / bframe-bias=0 / rc-lookahead=80 / lookahead-slices=4 / scenecut=40 / hist-scenecut=0 / radl=0 / no-splice / no-intra-refresh / ctu=64 / min-cu-size=8 / no-rect / no-amp / max-tu-size=32 / tu-inter-depth=1 / tu-intra-depth=1 / limit-tu=0 / rdoq-level=2 / dynamic-rd=0.00 / no-ssim-rd / signhide / no-tskip / nr-intra=0 / nr-inter=0 / no-constrained-intra / no-strong-intra-smoothing / max-merge=3 / limit-refs=3 / limit-modes / me=3 / subme=5 / merange=57 / temporal-mvp / no-frame-dup / no-hme / weightp / no-weightb / no-analyze-src-pics / deblock=0:0 / sao / no-sao-non-deblock / rd=4 / selective-sao=4 / no-early-skip / rskip / no-fast-intra / no-tskip-fast / no-cu-lossless / no-b-intra / no-splitrd-skip / rdpenalty=0 / psy-rd=1.30 / psy-rdoq=2.00 / no-rd-refine / no-lossless / cbqpoffs=0 / crqpoffs=0 / rc=crf / crf=19.0 / qcomp=0.60 / qpstep=4 / stats-write=0 / stats-read=0 / ipratio=1.40 / pbratio=1.30 / aq-mode=4 / aq-strength=1.10 / cutree / zone-count=0 / no-strict-cbr / qg-size=32 / no-rc-grain / qpmax=69 / qpmin=0 / no-const-vbv / sar=1 / overscan=0 / videoformat=5 / range=0 / colorprim=2 / transfer=2 / colormatrix=2 / chromaloc=0 / display-window=0 / cll=0,0 / min-luma=0 / max-luma=1023 / log2-max-poc-lsb=8 / vui-timing-info / vui-hrd-info / slices=1 / no-opt-qp-pps / no-opt-ref-list-length-pps / no-multi-pass-opt-rps / scenecut-bias=0.05 / hist-threshold=0.01 / no-opt-cu-delta-qp / no-aq-motion / no-hdr10 / no-hdr10-opt / no-dhdr10-opt / no-idr-recovery-sei / analysis-reuse-level=0 / analysis-save-reuse-level=0 / analysis-load-reuse-level=0 / scale-factor=0 / refine-intra=0 / refine-inter=0 / refine-mv=1 / refine-ctu-distortion=0 / no-limit-sao / ctu-info=0 / no-lowpass-dct / refine-analysis-type=0 / copy-pic=1 / max-ausize-factor=1.0 / no-dynamic-refine / no-single-sei / no-hevc-aq / no-svt / no-field / qp-adaptation-range=1.00 / no-scenecut-aware-qpconformance-window-offsets / right=0 / bottom=0
Language : English
Default : Yes
Forced : No
Color range : Limited

Audio #1
ID : 2
Format : DTS XLL
Format/Info : Digital Theater Systems
Commercial name : DTS-HD Master Audio
Codec ID : A_DTS
Duration : 2 h 37 min
Bit rate mode : Variable
Bit rate : 2 155 kb/s
Channel(s) : 6 channels
Channel layout : C L R Ls Rs LFE
Sampling rate : 48.0 kHz
Frame rate : 93.750 FPS (512 SPF)
Bit depth : 16 bits
Compression mode : Lossless
Stream size : 2.38 GiB (36%)
Language : English
Default : Yes
Forced : No

Audio #2
ID : 3
Format : AC-3
Format/Info : Audio Coding 3
Commercial name : Dolby Digital
Codec ID : A_AC3
Duration : 2 h 37 min
Bit rate mode : Constant
Bit rate : 192 kb/s
Channel(s) : 2 channels
Channel layout : L R
Sampling rate : 48.0 kHz
Frame rate : 31.250 FPS (1536 SPF)
Bit depth : 32 bits
Compression mode : Lossy
Stream size : 217 MiB (3%)
Title : English commentary
Language : English
Service kind : Complete Main
Default : No
Forced : No

Text #1
ID : 4
Format : PGS
Codec ID : S_HDMV/PGS
Codec ID/Info : Picture based subtitle format used on BDs/HD-DVDs
Duration : 2 h 26 min
Bit rate : 35.9 kb/s
Count of elements : 3797
Stream size : 37.5 MiB (1%)
Title : English
Language : English
Default : No
Forced : No

Text #2
ID : 5
Format : PGS
Codec ID : S_HDMV/PGS
Codec ID/Info : Picture based subtitle format used on BDs/HD-DVDs
Duration : 2 h 26 min
Bit rate : 32.7 kb/s
Count of elements : 3477
Stream size : 34.1 MiB (1%)
Title : German
Language : German
Default : No
Forced : No

Text #3
ID : 6
Format : PGS
Codec ID : S_HDMV/PGS
Codec ID/Info : Picture based subtitle format used on BDs/HD-DVDs
Duration : 2 h 36 min
Bit rate : 33.6 kb/s
Count of elements : 3827
Stream size : 37.6 MiB (1%)
Title : Turkish
Language : Turkish
Default : No
Forced : No

Menu
00:00:00.000 : :00:00:00.000
00:01:17.995 : :00:01:17.995
00:02:09.338 : :00:02:09.338
00:03:08.480 : :00:03:08.480
00:04:57.422 : :00:04:57.422
00:05:47.180 : :00:05:47.180
00:07:25.195 : :00:07:25.195
00:10:43.351 : :00:10:43.351
00:12:41.761 : :00:12:41.761
00:14:26.449 : :00:14:26.449
00:18:18.681 : :00:18:18.681
00:25:39.079 : :00:25:39.079
00:30:49.473 : :00:30:49.473
00:36:10.502 : :00:36:10.502
00:38:53.706 : :00:38:53.706
00:42:18.995 : :00:42:18.995
00:44:44.015 : :00:44:44.015
00:49:08.070 : :00:49:08.070
00:52:17.092 : :00:52:17.092
00:56:50.907 : :00:56:50.907
00:58:01.103 : :00:58:01.103
01:00:09.689 : :01:00:09.689
01:03:31.391 : :01:03:31.391
01:07:17.242 : :01:07:17.242
01:10:08.204 : :01:10:08.204
01:13:48.090 : :01:13:48.090
01:24:19.429 : :01:24:19.429
01:29:10.303 : :01:29:10.303
01:32:07.814 : :01:32:07.814
01:33:38.196 : :01:33:38.196
01:42:48.245 : :01:42:48.245
01:48:10.317 : :01:48:10.317
01:56:41.745 : :01:56:41.745
01:59:40.048 : :01:59:40.048
02:06:50.686 : :02:06:50.686
02:09:12.912 : :02:09:12.912
02:09:48.280 : :02:09:48.280
02:13:22.369 : :02:13:22.369
02:23:25.305 : :02:23:25.305

Source Information


General
Unique ID : 199972690231759059216841006444198683505 (0x967156D6F8A74FF6931DEB5D7286E371)
Complete name : 2012.2009.MULTI.REMUX.1080p.BluRay.AVC.DTS-HD.MA.5.1-LEGi0N.mkv
Format : Matroska
Format version : Version 4
File size : 26.8 GiB
Duration : 2 h 37 min
Overall bit rate mode : Variable
Overall bit rate : 24.4 Mb/s
Encoded date : UTC 2020-05-19 03:38:44
Writing application : mkvmerge v44.0.0 ('Domino') 64-bit
Writing library : libebml v1.3.10 + libmatroska v1.5.2

Video
ID : 1
Format : AVC
Format/Info : Advanced Video Codec
Format profile : [email protected]
Format settings : CABAC / 4 Ref Frames
Format settings, CABAC : Yes
Format settings, Reference : 4 frames
Codec ID : V_MPEG4/ISO/AVC
Duration : 2 h 37 min
Bit rate mode : Variable
Bit rate : 22.0 Mb/s
Maximum bit rate : 33.0 Mb/s
Width : 1 920 pixels
Height : 1 080 pixels
Display aspect ratio : 16:9
Frame rate mode : Constant
Frame rate : 23.976 (24000/1001) FPS
Color space : YUV
Chroma subsampling : 4:2:0
Bit depth : 8 bits
Scan type : Progressive
Bits/(Pixel*Frame) : 0.442
Stream size : 24.2 GiB (90%)
Title : English
Language : English
Default : Yes
Forced : No
Color range : Limited
Color primaries : BT.709
Transfer characteristics : BT.709
Matrix coefficients : BT.709

Audio #1
ID : 2
Format : DTS XLL
Format/Info : Digital Theater Systems
Commercial name : DTS-HD Master Audio
Codec ID : A_DTS
Duration : 2 h 37 min
Bit rate mode : Variable
Bit rate : 2 155 kb/s
Channel(s) : 6 channels
Channel layout : C L R Ls Rs LFE
Sampling rate : 48.0 kHz
Frame rate : 93.750 FPS (512 SPF)
Bit depth : 16 bits
Compression mode : Lossless
Stream size : 2.38 GiB (9%)
Language : English
Default : Yes
Forced : No

Audio #2
ID : 3
Format : AC-3
Format/Info : Audio Coding 3
Commercial name : Dolby Digital
Codec ID : A_AC3
Duration : 2 h 37 min
Bit rate mode : Constant
Bit rate : 192 kb/s
Channel(s) : 2 channels
Channel layout : L R
Sampling rate : 48.0 kHz
Frame rate : 31.250 FPS (1536 SPF)
Compression mode : Lossy
Stream size : 217 MiB (1%)
Title : English commentary
Language : English
Service kind : Complete Main
Default : No
Forced : No

Text #1
ID : 4
Format : PGS
Muxing mode : zlib
Codec ID : S_HDMV/PGS
Codec ID/Info : Picture based subtitle format used on BDs/HD-DVDs
Duration : 2 h 26 min
Bit rate : 35.9 kb/s
Count of elements : 3797
Stream size : 37.5 MiB (0%)
Title : English
Language : English
Default : No
Forced : No

Text #2
ID : 5
Format : PGS
Muxing mode : zlib
Codec ID : S_HDMV/PGS
Codec ID/Info : Picture based subtitle format used on BDs/HD-DVDs
Duration : 2 h 26 min
Bit rate : 32.7 kb/s
Count of elements : 3477
Stream size : 34.1 MiB (0%)
Title : German
Language : German
Default : No
Forced : No

Text #3
ID : 6
Format : PGS
Muxing mode : zlib
Codec ID : S_HDMV/PGS
Codec ID/Info : Picture based subtitle format used on BDs/HD-DVDs
Duration : 2 h 36 min
Bit rate : 33.6 kb/s
Count of elements : 3827
Stream size : 37.6 MiB (0%)
Title : Turkish
Language : Turkish
Default : No
Forced : No

Menu
00:00:00.000 : en:00:00:00.000
00:01:17.995 : en:00:01:17.995
00:02:09.338 : en:00:02:09.338
00:03:08.480 : en:00:03:08.480
00:04:57.422 : en:00:04:57.422
00:05:47.180 : en:00:05:47.180
00:07:25.195 : en:00:07:25.195
00:10:43.351 : en:00:10:43.351
00:12:41.761 : en:00:12:41.761
00:14:26.449 : en:00:14:26.449
00:18:18.681 : en:00:18:18.681
00:25:39.079 : en:00:25:39.079
00:30:49.473 : en:00:30:49.473
00:36:10.502 : en:00:36:10.502
00:38:53.706 : en:00:38:53.706
00:42:18.995 : en:00:42:18.995
00:44:44.015 : en:00:44:44.015
00:49:08.070 : en:00:49:08.070
00:52:17.092 : en:00:52:17.092
00:56:50.907 : en:00:56:50.907
00:58:01.103 : en:00:58:01.103
01:00:09.689 : en:01:00:09.689
01:03:31.391 : en:01:03:31.391
01:07:17.242 : en:01:07:17.242
01:10:08.204 : en:01:10:08.204
01:13:48.090 : en:01:13:48.090
01:24:19.429 : en:01:24:19.429
01:29:10.303 : en:01:29:10.303
01:32:07.814 : en:01:32:07.814
01:33:38.196 : en:01:33:38.196
01:42:48.245 : en:01:42:48.245
01:48:10.317 : en:01:48:10.317
01:56:41.745 : en:01:56:41.745
01:59:40.048 : en:01:59:40.048
02:06:50.686 : en:02:06:50.686
02:09:12.912 : en:02:09:12.912
02:09:48.280 : en:02:09:48.280
02:13:22.369 : en:02:13:22.369
02:23:25.305 : en:02:23:25.305

Hello everyone,
We are TAoE, a small team of passionate encoders who love encoding. We try our best to provide you with high quality releases.
If you would like to join the team just drop us a comment or send us a message.




.........................................................................................................................................


Trackers List

Tracker Name
udp://tracker.coppersurfer.tk:6969/announce
udp://tracker.internetwarriors.net:1337/announce
http://tracker.opentrackr.org:1337/announce
udp://denis.stalker.upeer.me:6969/announce
udp://tracker.internetwarriors.net:1337
udp://9.rarbg.me:2720/announce
udp://explodie.org:6969/announce
udp://tracker.cyberia.is:6969/announce
udp://thetracker.org/announce
udp://open.demonii.si:1337/announce

Torrent File Content

  • 2012 (2009) (1080p BDRip x265 10bit DTS-HD MA 5.1 - r0b0t) [TAoE].mkv (6.6 GB)


Latest Searches