[180810][魔人]黒獣~気高き聖女は白濁に染まる~ 戦慄の乱交劇 高潔な姫騎士の白い柔肌に食い込むのは、怒張した切先 編(No Watermark)v2.mp4


    Seeders : 1752      Leechers : 300

Downloads : 533
Language : Japanese
tag : BH7,Hentai,nyaa,




Description

https://www.pixsense.net/site/v/6975126#2346&6975126


https://www.pixsense.net/site/v/6975126#2346&6975127


https://www.pixsense.net/site/v/6975126#2346&6975128


https://www.pixsense.net/site/v/6975126#2346&6975129




Video
ID : 1
Format : AVC
Format/Info : Advanced Video Codec
Format profile : [email protected]
Format settings, CABAC : Yes
Format settings, ReFrames : 5 frames
Codec ID : avc1
Codec ID/Info : Advanced Video Coding
Duration : 14mn 27s
Bit rate : 980 Kbps
Maximum bit rate : 2 834 Kbps
Width : 720 pixels
Height : 480 pixels
Display aspect ratio : 16:9
Original display aspect rat : 16:9
Frame rate mode : Variable
Frame rate : 24.792 fps
Original frame rate : 29.970 fps
Minimum frame rate : 11.988 fps
Maximum frame rate : 119.880 fps
Color space : YUV
Chroma subsampling : 4:2:0
Bit depth : 8 bits
Scan type : Progressive
Bits/(Pixel*Frame) : 0.114
Stream size : 101 MiB (83%)
Writing library : x264 core 123 r2184+681M 5d72658
Encoding settings : cabac=1 / ref=5 / deblock=1:-2:-2 / analyse=0x3:0x113 / me=umh / subme=7 / psy=1 / fade_compensate=0.00 / psy_rd=1.00:0.00 / mixed_ref=1 / me_range=32 / chroma_me=1 / trellis=1 / 8x8dct=1 / cqm=0 / deadzone=21,11 / fast_pskip=1 / chroma_qp_offset=-2 / threads=7 / sliced_threads=1 / slices=7 / nr=0 / decimate=1 / interlaced=0 / bluray_compat=0 / constrained_intra=0 / fgo=0 / bframes=3 / b_pyramid=2 / b_adapt=2 / b_bias=0 / direct=3 / weightb=1 / open_gop=0 / weightp=2 / keyint=250 / keyint_min=25 / scenecut=40 / intra_refresh=0 / rc_lookahead=40 / rc=crf / mbtree=1 / crf=18.0000 / qcomp=0.60 / qpmin=0 / qpmax=69 / qpstep=4 / ip_ratio=1.40 / aq=1:1.00
Encoded date : UTC 2018-08-02 10:29:57
Tagged date : UTC 2018-08-01 12:01:51

Audio
ID : 2
Format : AAC
Format/Info : Advanced Audio Codec
Format profile : LC
Codec ID : 40
Duration : 14mn 27s
Bit rate mode : Variable
Bit rate : 192 Kbps
Maximum bit rate : 208 Kbps
Channel(s) : 2 channels
Channel positions : Front: L R
Sampling rate : 48.0 KHz
Compression mode : Lossy
Stream size : 19.6 MiB (16%)
Encoded date : UTC 2018-08-01 12:01:51


Trackers List

Tracker Name
http://sukebei.tracker.wf:8888/announce
http://anidex.moe:6969/announce
http://mgtracker.org:6969/announce
udp://open.stealth.si:80/announce
udp://tracker.opentrackr.org:1337/announce
udp://tracker.coppersurfer.tk:6969/announce
udp://tracker.leechers-paradise.org:6969/announce

Torrent File Content

  • [180810][魔人]黒獣~気高き聖女は白濁に染まる~ 戦慄の乱交劇 高潔な姫騎士の白い柔肌に食い込むのは、怒張した切先 編(No Watermark)v2.mp4 (121.4 MB)


Latest Searches